微博 微信

Hao4K影音

电影频道
电影封面:
片  名: 高草丛中4k
电影分类: 恐怖 
国  家: 加拿大 
年  代: 2019年
分 辨 率: 4K(3840x2160)
电影格式: MKV|REMUX 
画质标准: HDR 
音质编码: Dolby Digital Plus Audio 
电影声道: 5.1声道 
帧数/FPS: 24.000 FPS
电影语言: 中文简体 中文繁体 英文原版 
资源大小: 11.17 GB
导  演: 文森佐·纳塔利
豆瓣评分: 6.4 分
中文字幕: /thread-53900-1-1.html
剧情简介: 贝奇(蕾斯拉·德·奥利维拉 Laysla De Oliveira 饰)和哥哥卡尔(艾弗里·维提德 Avery Whitted 饰)驱车行驶在公路上,半途中,已经怀孕的贝奇感到非常的不舒服,于是下车休息,此时听到路边的高草丛里传来孩子的呼救声,循着声音,贝奇和卡尔先后走进了高草丛中,哪知道就此踏入了地狱的大门内。
  高草丛仿佛一个有生命的恶魔,吞噬着一切误入其中的生命。在高草丛里,贝奇遇见了同样迷失在此的罗斯(帕特里克·威尔森 Patrick Wilson 饰),这个男人虽然仪表堂堂,却散发着危险的气息。贾维斯(哈里森·吉尔伯特森 Harrison Gilbertson 饰)是贝奇的男友,在女友失踪后,他踏上了寻人之路。
高草魅声(台) / 草丛失魂/高草丛中4k In.the.Tall.Grass.2019.2160p.NF.WEB-DL.x265.10bit.HDR.DDP5.1.Atmos.电影信息
  1. Video
  2. ID : 1
  3. Format : HEVC
  4. Format/Info : High Efficiency Video Coding
  5. Format profile : Main 10@L5@Main
  6. HDR format : SMPTE ST 2086, HDR10 compatible
  7. Codec ID : V_MPEGH/ISO/HEVC
  8. Duration : 1 h 41 min
  9. Bit rate : 15.0 Mb/s
  10. Width : 3 840 pixels
  11. Height : 2 160 pixels
  12. Display aspect ratio : 16:9
  13. Frame rate mode : Constant
  14. Frame rate : 24.000 FPS
  15. Color space : YUV
  16. Chroma subsampling : 4:2:0 (Type 2)
  17. Bit depth : 10 bits
  18. Bits/(Pixel*Frame) : 0.075
  19. Stream size : 10.6 GiB (95%)
  20. Default : Yes
  21. Forced : No
  22. Color range : Limited
  23. Color primaries : BT.2020
  24. Transfer characteristics : PQ
  25. Matrix coefficients : BT.2020 non-constant
  26. Mastering display color primaries : Display P3
  27. Mastering display luminance : min: 0.0001 cd/m2, max: 1000 cd/m2
  28. Maximum Content Light Level : 1388 cd/m2
  29. Maximum Frame-Average Light Level : 355 cd/m2

  30. Audio
  31. ID : 2
  32. Format : E-AC-3 JOC
  33. Format/Info : Enhanced AC-3 with Joint Object Coding
  34. Commercial name : Dolby Digital Plus with Dolby Atmos
  35. Codec ID : A_EAC3
  36. Duration : 1 h 41 min
  37. Bit rate mode : Constant
  38. Bit rate : 768 kb/s
  39. Channel(s) : 6 channels
  40. Channel layout : L R C LFE Ls Rs
  41. Sampling rate : 48.0 kHz
  42. Frame rate : 31.250 FPS (1536 SPF)
  43. Compression mode : Lossy
  44. Stream size : 560 MiB (5%)
  45. Title : DDP 5.1
  46. Language : English
  47. Service kind : Complete Main
  48. Default : Yes
  49. Forced : No
  50. Complexity index : 16
  51. Number of dynamic objects : 15
  52. Bed channel count : 1 channel
  53. Bed channel configuration : LFE

  54. Text #1
  55. ID : 3
  56. Format : UTF-8
  57. Codec ID : S_TEXT/UTF8
  58. Codec ID/Info : UTF-8 Plain Text
  59. Duration : 1 h 38 min
  60. Bit rate : 48 b/s
  61. Count of elements : 1501
  62. Stream size : 35.1 KiB (0%)
  63. Language : English
  64. Default : Yes
  65. Forced : No

  66. Text #2
  67. ID : 4
  68. Format : UTF-8
  69. Codec ID : S_TEXT/UTF8
  70. Codec ID/Info : UTF-8 Plain Text
  71. Duration : 1 h 39 min
  72. Bit rate : 37 b/s
  73. Count of elements : 1178
  74. Stream size : 27.5 KiB (0%)
  75. Language : Danish
  76. Default : No
  77. Forced : No

  78. Text #3
  79. ID : 5
  80. Format : UTF-8
  81. Codec ID : S_TEXT/UTF8
  82. Codec ID/Info : UTF-8 Plain Text
  83. Duration : 1 h 39 min
  84. Bit rate : 32 b/s
  85. Count of elements : 1133
  86. Stream size : 23.8 KiB (0%)
  87. Language : Czech
  88. Default : No
  89. Forced : No

  90. Text #4
  91. ID : 6
  92. Format : UTF-8
  93. Codec ID : S_TEXT/UTF8
  94. Codec ID/Info : UTF-8 Plain Text
  95. Duration : 1 h 39 min
  96. Bit rate : 63 b/s
  97. Count of elements : 1177
  98. Stream size : 45.7 KiB (0%)
  99. Language : Arabic
  100. Default : No
  101. Forced : No

  102. Text #5
  103. ID : 7
  104. Format : UTF-8
  105. Codec ID : S_TEXT/UTF8
  106. Codec ID/Info : UTF-8 Plain Text
  107. Duration : 1 h 39 min
  108. Bit rate : 58 b/s
  109. Count of elements : 1154
  110. Stream size : 42.5 KiB (0%)
  111. Language : Greek
  112. Default : No
  113. Forced : No

  114. Text #6
  115. ID : 8
  116. Format : UTF-8
  117. Codec ID : S_TEXT/UTF8
  118. Codec ID/Info : UTF-8 Plain Text
  119. Duration : 1 h 39 min
  120. Bit rate : 32 b/s
  121. Count of elements : 1142
  122. Stream size : 23.8 KiB (0%)
  123. Language : Spanish
  124. Default : No
  125. Forced : No

  126. Text #7
  127. ID : 9
  128. Format : UTF-8
  129. Codec ID : S_TEXT/UTF8
  130. Codec ID/Info : UTF-8 Plain Text
  131. Duration : 1 h 33 min
  132. Bit rate : 37 b/s
  133. Count of elements : 1100
  134. Stream size : 26.1 KiB (0%)
  135. Language : Spanish
  136. Default : No
  137. Forced : No

  138. Text #8
  139. ID : 10
  140. Format : UTF-8
  141. Codec ID : S_TEXT/UTF8
  142. Codec ID/Info : UTF-8 Plain Text
  143. Duration : 1 h 39 min
  144. Bit rate : 34 b/s
  145. Count of elements : 1039
  146. Stream size : 25.0 KiB (0%)
  147. Language : Finnish
  148. Default : No
  149. Forced : No

  150. Text #9
  151. ID : 11
  152. Format : UTF-8
  153. Codec ID : S_TEXT/UTF8
  154. Codec ID/Info : UTF-8 Plain Text
  155. Duration : 1 h 39 min
  156. Bit rate : 34 b/s
  157. Count of elements : 1144
  158. Stream size : 25.0 KiB (0%)
  159. Language : German
  160. Default : No
  161. Forced : No

  162. Text #10
  163. ID : 12
  164. Format : UTF-8
  165. Codec ID : S_TEXT/UTF8
  166. Codec ID/Info : UTF-8 Plain Text
  167. Duration : 1 h 39 min
  168. Bit rate : 56 b/s
  169. Count of elements : 1178
  170. Stream size : 41.0 KiB (0%)
  171. Language : Hebrew
  172. Default : No
  173. Forced : No

  174. Text #11
  175. ID : 13
  176. Format : UTF-8
  177. Codec ID : S_TEXT/UTF8
  178. Codec ID/Info : UTF-8 Plain Text
  179. Duration : 1 h 39 min
  180. Bit rate : 100 b/s
  181. Count of elements : 1178
  182. Stream size : 72.8 KiB (0%)
  183. Language : Hindi
  184. Default : No
  185. Forced : No

  186. Text #12
  187. ID : 14
  188. Format : UTF-8
  189. Codec ID : S_TEXT/UTF8
  190. Codec ID/Info : UTF-8 Plain Text
  191. Duration : 1 h 39 min
  192. Bit rate : 34 b/s
  193. Count of elements : 1094
  194. Stream size : 24.8 KiB (0%)
  195. Language : French
  196. Default : No
  197. Forced : No

  198. Text #13
  199. ID : 15
  200. Format : UTF-8
  201. Codec ID : S_TEXT/UTF8
  202. Codec ID/Info : UTF-8 Plain Text
  203. Duration : 1 h 39 min
  204. Bit rate : 37 b/s
  205. Count of elements : 1178
  206. Stream size : 26.9 KiB (0%)
  207. Language : Hungarian
  208. Default : No
  209. Forced : No

  210. Text #14
  211. ID : 16
  212. Format : UTF-8
  213. Codec ID : S_TEXT/UTF8
  214. Codec ID/Info : UTF-8 Plain Text
  215. Duration : 1 h 39 min
  216. Bit rate : 34 b/s
  217. Count of elements : 1157
  218. Stream size : 25.0 KiB (0%)
  219. Language : Indonesian
  220. Default : No
  221. Forced : No

  222. Text #15
  223. ID : 17
  224. Format : UTF-8
  225. Codec ID : S_TEXT/UTF8
  226. Codec ID/Info : UTF-8 Plain Text
  227. Duration : 1 h 39 min
  228. Bit rate : 47 b/s
  229. Count of elements : 1164
  230. Stream size : 34.2 KiB (0%)
  231. Language : Korean
  232. Default : No
  233. Forced : No

  234. Text #16
  235. ID : 18
  236. Format : UTF-8
  237. Codec ID : S_TEXT/UTF8
  238. Codec ID/Info : UTF-8 Plain Text
  239. Duration : 1 h 38 min
  240. Bit rate : 33 b/s
  241. Count of elements : 1127
  242. Stream size : 24.0 KiB (0%)
  243. Language : Italian
  244. Default : No
  245. Forced : No

  246. Text #17
  247. ID : 19
  248. Format : UTF-8
  249. Codec ID : S_TEXT/UTF8
  250. Codec ID/Info : UTF-8 Plain Text
  251. Duration : 1 h 39 min
  252. Bit rate : 35 b/s
  253. Count of elements : 1165
  254. Stream size : 25.6 KiB (0%)
  255. Language : Norwegian Bokmal
  256. Default : No
  257. Forced : No

  258. Text #18
  259. ID : 20
  260. Format : UTF-8
  261. Codec ID : S_TEXT/UTF8
  262. Codec ID/Info : UTF-8 Plain Text
  263. Duration : 1 h 39 min
  264. Bit rate : 32 b/s
  265. Count of elements : 1125
  266. Stream size : 23.4 KiB (0%)
  267. Language : Polish
  268. Default : No
  269. Forced : No

  270. Text #19
  271. ID : 21
  272. Format : UTF-8
  273. Codec ID : S_TEXT/UTF8
  274. Codec ID/Info : UTF-8 Plain Text
  275. Duration : 1 h 32 min
  276. Bit rate : 33 b/s
  277. Count of elements : 1137
  278. Stream size : 22.9 KiB (0%)
  279. Title : Brasil
  280. Language : Portuguese
  281. Default : No
  282. Forced : No

  283. Text #20
  284. ID : 22
  285. Format : UTF-8
  286. Codec ID : S_TEXT/UTF8
  287. Codec ID/Info : UTF-8 Plain Text
  288. Duration : 1 h 39 min
  289. Bit rate : 36 b/s
  290. Count of elements : 1132
  291. Stream size : 26.5 KiB (0%)
  292. Language : Japanese
  293. Default : No
  294. Forced : No

  295. Text #21
  296. ID : 23
  297. Format : UTF-8
  298. Codec ID : S_TEXT/UTF8
  299. Codec ID/Info : UTF-8 Plain Text
  300. Duration : 1 h 39 min
  301. Bit rate : 40 b/s
  302. Count of elements : 1161
  303. Stream size : 29.2 KiB (0%)
  304. Title : Simplified
  305. Language : Chinese
  306. Default : No
  307. Forced : No

  308. Text #22
  309. ID : 24
  310. Format : UTF-8
  311. Codec ID : S_TEXT/UTF8
  312. Codec ID/Info : UTF-8 Plain Text
  313. Duration : 1 h 39 min
  314. Bit rate : 37 b/s
  315. Count of elements : 1172
  316. Stream size : 27.3 KiB (0%)
  317. Title : Traditional
  318. Language : Chinese
  319. Default : No
  320. Forced : No

  321. Text #23
  322. ID : 25
  323. Format : UTF-8
  324. Codec ID : S_TEXT/UTF8
  325. Codec ID/Info : UTF-8 Plain Text
  326. Duration : 1 h 39 min
  327. Bit rate : 31 b/s
  328. Count of elements : 886
  329. Stream size : 22.7 KiB (0%)
  330. Language : Dutch
  331. Default : No
  332. Forced : No

  333. Text #24
  334. ID : 26
  335. Format : UTF-8
  336. Codec ID : S_TEXT/UTF8
  337. Codec ID/Info : UTF-8 Plain Text
  338. Duration : 1 h 39 min
  339. Bit rate : 32 b/s
  340. Count of elements : 1154
  341. Stream size : 23.8 KiB (0%)
  342. Language : Portuguese
  343. Default : No
  344. Forced : No

  345. Text #25
  346. ID : 27
  347. Format : UTF-8
  348. Codec ID : S_TEXT/UTF8
  349. Codec ID/Info : UTF-8 Plain Text
  350. Duration : 1 h 39 min
  351. Bit rate : 37 b/s
  352. Count of elements : 1140
  353. Stream size : 27.4 KiB (0%)
  354. Language : Romanian
  355. Default : No
  356. Forced : No

  357. Text #26
  358. ID : 28
  359. Format : UTF-8
  360. Codec ID : S_TEXT/UTF8
  361. Codec ID/Info : UTF-8 Plain Text
  362. Duration : 1 h 39 min
  363. Bit rate : 33 b/s
  364. Count of elements : 1048
  365. Stream size : 24.2 KiB (0%)
  366. Language : Swedish
  367. Default : No
  368. Forced : No

  369. Text #27
  370. ID : 29
  371. Format : UTF-8
  372. Codec ID : S_TEXT/UTF8
  373. Codec ID/Info : UTF-8 Plain Text
  374. Duration : 1 h 39 min
  375. Bit rate : 98 b/s
  376. Count of elements : 1161
  377. Stream size : 71.7 KiB (0%)
  378. Language : Thai
  379. Default : No
  380. Forced : No
复制代码

高草魅声(台) / 草丛失魂/高草丛中4k In.the.Tall.Grass.2019.2160p.NF.WEB-DL.x265.10bit.HDR.DDP5.1.Atmos.电影下载

高草丛中4k In.the.Tall.Grass.2019.2160p.NF.WEB-DL.x265.10bit.HDR.DDP5.1.Atmos.【11.17 GB】
[Hao4k]高草丛中4k In.the.Tall.Grass.2019.2160p.NF.WEB-DL.x265.10bit.HDR.DDP5.1.A.torrent (56.43 KB, 售价: 2 K币)

高草丛中4k In.the.Tall.Grass.2019.2160p.NF.WEB-DL.x265.10bit.SDR.DDP5.1.Atmos【8.78 GB】
[Hao4k]高草丛中4k In.the.Tall.Grass.2019.2160p.NF.WEB-DL.x265.10bit.SDR.DDP5.1.A.torrent (44.46 KB, 售价: 2 K币)
分享到:  QQ好友和群QQ好友和群
回复

使用道具 举报

全部回复35

沙发
罗洋 发表于 2021-1-28 22:33:11

罗洋 沙发

2021-1-28 22:33:11

加油!.......................  感谢分享
回复 支持 反对

使用道具 举报

板凳
世爵39 发表于 2021-1-29 08:13:11

世爵39 板凳

2021-1-29 08:13:11


哪里有字幕可下
回复 支持 反对

使用道具 举报

地板
世爵39 发表于 2021-1-29 08:22:43

世爵39 地板

2021-1-29 08:22:43


经典电影,期待续集的电影
回复 支持 反对

使用道具 举报

5#
世爵39 发表于 2021-1-29 08:32:20

世爵39 5#

2021-1-29 08:32:20

我想问一下,资源有什么不一样吗?是因为售价低是片源不清还是资源不好呢
回复 支持 反对

使用道具 举报

6#
世爵39 发表于 2021-1-29 08:40:12

世爵39 6#

2021-1-29 08:40:12

这个片子不错
回复 支持 反对

使用道具 举报

7#
lj770415 发表于 2021-1-29 08:43:49

lj770415 7#

2021-1-29 08:43:49

草丛加泥浆版本的差点儿意思的恐怖游轮。又听到帕翠唱歌了嘻嘻。
回复 支持 反对

使用道具 举报

8#
chuchan1 发表于 2021-1-29 10:03:27

chuchan1 8#

2021-1-29 10:03:27

谢谢分享精彩的电影
回复 支持 反对

使用道具 举报

9#
xuyifan 发表于 2021-1-29 10:36:32

xuyifan 9#

2021-1-29 10:36:32

谢谢分享
回复 支持 反对

使用道具 举报

10#
koto191 发表于 2021-1-29 12:30:41

koto191 10#

2021-1-29 12:30:41


谢谢分享电影,精彩!!
回复 支持 反对

使用道具 举报

11#
lnnd126 发表于 2021-1-29 15:46:58

lnnd126 11#

2021-1-29 15:46:58

谢谢分享,感谢
回复 支持 反对

使用道具 举报

12#
sfoy 发表于 2021-1-29 16:32:32 Hao4K手机版

sfoy 12#

2021-1-29 16:32:32

感谢分享!
回复 支持 反对

使用道具 举报

13#
cc158602358 发表于 2021-1-29 16:53:10

cc158602358 13#

2021-1-29 16:53:10

谢谢分享,支持一下
回复 支持 反对

使用道具 举报

14#
bbgrnnji 发表于 2021-1-29 17:48:16

bbgrnnji 14#

2021-1-29 17:48:16

估计还是有点意思
回复 支持 反对

使用道具 举报

15#
windfoxzot 发表于 2021-1-29 19:37:16

windfoxzot 15#

2021-1-29 19:37:16

谢谢分享精彩的电影
回复 支持 反对

使用道具 举报

16#
小月月 发表于 2021-1-29 19:59:43

小月月 16#

2021-1-29 19:59:43

哈哈哈哈哈哈哈哈哈哈哈哈
回复 支持 反对

使用道具 举报

17#
bonna 发表于 2021-1-29 22:27:32

bonna 17#

2021-1-29 22:27:32

两个版本,自然是大的那个。
回复 支持 反对

使用道具 举报

18#
kingjlc 发表于 2021-1-30 07:37:17

kingjlc 18#

2021-1-30 07:37:17

感谢分享好电影
回复 支持 反对

使用道具 举报

   发表回复

您需要登录后才可以回帖 登录 | 立即注册

返回列表 本版积分规则

  • 在线客服

  • 返回顶部