微博 微信

Hao4K影音

[美剧] 婚外情事 第二季4k The.Affair.S02.2160p.美剧下载

2021-1-28 22:09:42 20372 0 |只看大图 回帖奖励 |倒序浏览 |阅读模式

大红色 楼主

2021-1-28 22:09:42

电视剧频道
电视剧封面:
电视剧名: 婚外情事 第二季4k
年  代: 2015  
国  家: 美国
类  别:  
语  言: 英语
字  幕: -
上映日期: 2015-10-04
文件格式: mkv    
视频效果: 4K(3840x2160)    
资源大小: 72.25 GB
片  长: 60 分钟
导  演: 杰弗里·莱纳
剧情简介: 诺亚·索洛维是一位来自纽约的教师及小说家,有着幸福美满的家庭。可生活上处处依靠他富有的岳父,让他颇为抑郁。年轻的餐厅服务生艾莉森正试着走出一段悲剧,修补破碎的生活和婚姻。两人相遇在长岛尽头的小镇蒙托克,一段激情邂逅就此展开。
婚外情 / 情事/婚外情事 第二季4k The.Affair.S02.2160p.WEBRip.AAC5.1.x265.美剧信息
  1. Video
  2. ID : 1
  3. Format : HEVC
  4. Format/Info : High Efficiency Video Coding
  5. Format profile : Main@L5@High
  6. Codec ID : V_MPEGH/ISO/HEVC
  7. Duration : 1 h 8 min
  8. Bit rate : 14.1 Mb/s
  9. Width : 3 840 pixels
  10. Height : 2 160 pixels
  11. Display aspect ratio : 16:9
  12. Frame rate mode : Constant
  13. Frame rate : 23.976 (24000/1001) FPS
  14. Color space : YUV
  15. Chroma subsampling : 4:2:0
  16. Bit depth : 8 bits
  17. Bits/(Pixel*Frame) : 0.071
  18. Stream size : 6.75 GiB (97%)
  19. Language : English
  20. Default : Yes
  21. Forced : No
  22. Color range : Limited
  23. Color primaries : BT.709
  24. Transfer characteristics : BT.709
  25. Matrix coefficients : BT.709

  26. Audio
  27. ID : 2
  28. Format : AAC LC
  29. Format/Info : Advanced Audio Codec Low Complexity
  30. Codec ID : A_AAC-2
  31. Duration : 1 h 8 min
  32. Bit rate : 445 kb/s
  33. Channel(s) : 6 channels
  34. Channel layout : C L R Ls Rs LFE
  35. Sampling rate : 48.0 kHz
  36. Frame rate : 46.875 FPS (1024 SPF)
  37. Compression mode : Lossy
  38. Stream size : 218 MiB (3%)
  39. Language : English
  40. Default : Yes
  41. Forced : No

  42. Text
  43. ID : 3
  44. Format : UTF-8
  45. Codec ID : S_TEXT/UTF8
  46. Codec ID/Info : UTF-8 Plain Text
  47. Duration : 1 h 8 min
  48. Bit rate : 78 b/s
  49. Count of elements : 1457
  50. Stream size : 39.2 KiB (0%)
  51. Title : English [SDH]
  52. Language : English
  53. Default : No
  54. Forced : No
复制代码

婚外情 / 情事/婚外情事 第二季4k The.Affair.S02.2160p.WEBRip.AAC5.1.x265.美剧下载

婚外情事 第二季4k The.Affair.S02.2160p.WEBRip.AAC5.1.x265【72.25 GB】
[Hao4k]婚外情事 第二季4k The.Affair.S02.2160p.WEBRip.AAC5.1.x265-KOGi[rartv].torrent (181.93 KB)
回复

使用道具 举报

   发表回复

您需要登录后才可以回帖 登录 | 立即注册

返回列表 本版积分规则

:
白银玩家
:
未填写

主题

帖子

积分995

图文推荐

  • “007”系列电影《007:无暇赴死》宣布全片

    “007”系列电影《007:无暇赴死》宣布全片杀青,

  • 【新手教程】抛弃移动硬盘、直连电脑FTP服

    简单说下个人情况:电视55X9500G,没有NAS,

  • 刚买了个好东西:16T的单碟移动硬盘。

    刚买了个好东西:16T的单碟移动硬盘。中亚上买的

  • 最新版Kodi( XBMC)18.0 4K电视、4K盒子TV

    KODI(XBMC)TV版简介 KODI是XBMC的升级版,早期

  • 教你怎么把Kodi(XBMC)设置成中文

    1、启动 Kodi,进入 System -> Settings -> Appea

  • 在线客服

  • 返回顶部