微博 微信

Hao4K影音

[美剧] 婚外情事 第三季4k The.Affair.S03.2160p.美剧下载

昨天 14:22 12581 2 |只看大图 回帖奖励 |倒序浏览 |阅读模式

大红色 楼主

2021-1-29 10:55:15

电视剧频道
电视剧封面:
电视剧名: 婚外情事 第三季4k
年  代: 2016  
国  家: 美国
类  别: 惊悚 剧情 爱情 
语  言: 英语
字  幕: 英文原版
上映日期: 2016-11-20
文件格式: mkv    
视频效果: 4K(3840x2160)    
资源大小: 51.48 GB
片  长: 60 分钟
导  演: 杰弗里·莱纳
剧情简介:  当第三季开始时,故事时间已经过去三年整,Noah一直在监狱里代替前妻Helen服刑。Helen试图让女儿Whitney相信Noah并非真的有罪,但Whitney根本不听。Noah三年刑满后获得自由,但他很快发现过去的阴影仍然存在,他的精神状态变得非常黑暗,重获新生谈何容易。与此同时,Alison一直无法忘记失去第一个孩子的痛苦,而且女儿Joanie的抚养权官司也一直没有定论。虽然Joanie是Cole的亲生骨肉,但Cole已经决定抛开往事,与Luisa组成新的家庭。Helen现在的事业很成功,但在荣誉光环之下,她其实比谁都糟糕。在家中,她和男友Vic的关系很不确定,和孩子们的关系很不稳定,而且她始终有强烈的负罪感。
婚外情事 第三季4k The.Affair.S03.2160p.WEBRip.AAC5.1.x265.美剧信息
  1. Video
  2. ID : 1
  3. Format : HEVC
  4. Format/Info : High Efficiency Video Coding
  5. Format profile : Main@L5@High
  6. Codec ID : V_MPEGH/ISO/HEVC
  7. Duration : 59 min 30 s
  8. Bit rate : 12.8 Mb/s
  9. Width : 3 840 pixels
  10. Height : 2 160 pixels
  11. Display aspect ratio : 16:9
  12. Frame rate mode : Constant
  13. Frame rate : 23.976 (24000/1001) FPS
  14. Color space : YUV
  15. Chroma subsampling : 4:2:0
  16. Bit depth : 8 bits
  17. Bits/(Pixel*Frame) : 0.065
  18. Stream size : 5.34 GiB (97%)
  19. Language : English
  20. Default : Yes
  21. Forced : No
  22. Color range : Limited
  23. Color primaries : BT.709
  24. Transfer characteristics : BT.709
  25. Matrix coefficients : BT.709

  26. Audio
  27. ID : 2
  28. Format : AAC LC
  29. Format/Info : Advanced Audio Codec Low Complexity
  30. Codec ID : A_AAC-2
  31. Duration : 59 min 30 s
  32. Bit rate : 445 kb/s
  33. Channel(s) : 6 channels
  34. Channel layout : C L R Ls Rs LFE
  35. Sampling rate : 48.0 kHz
  36. Frame rate : 46.875 FPS (1024 SPF)
  37. Compression mode : Lossy
  38. Stream size : 190 MiB (3%)
  39. Language : English
  40. Default : Yes
  41. Forced : No

  42. Text
  43. ID : 3
  44. Format : UTF-8
  45. Codec ID : S_TEXT/UTF8
  46. Codec ID/Info : UTF-8 Plain Text
  47. Duration : 58 min 52 s
  48. Bit rate : 46 b/s
  49. Count of elements : 775
  50. Stream size : 20.0 KiB (0%)
  51. Title : English [SDH]
  52. Language : English
  53. Default : No
  54. Forced : No
复制代码

婚外情事 第三季4k The.Affair.S03.2160p.WEBRip.AAC5.1.x265.美剧下载

婚外情事 第三季4k The.Affair.S03.2160p.WEBRip.AAC5.1.x265【51.48 GB】
[Hao4k]婚外情事 第三季4k The.Affair.S03.2160p.WEBRip.AAC5.1.x265-KOGi[rartv].torrent (129.87 KB)
回复

使用道具 举报

全部回复2

Mazwelles 发表于 2021-2-17 18:38:28

Mazwelles 沙发

2021-2-17 18:38:28

这个是啥?
回复 支持 反对

使用道具 举报

ly000111 发表于 昨天 14:22

ly000111 板凳

昨天 14:22

哪里看一季有多少集
回复 支持 反对

使用道具 举报

   发表回复

您需要登录后才可以回帖 登录 | 立即注册

返回列表 本版积分规则

:
白银玩家
:
未填写

主题

帖子

积分995

图文推荐

  • 外挂字幕音轨与视频封装技术方法教程

    先说说我的心路历程,一切的开始是从寻找合适的播

  • 86寸仅售7999元?Redmi MAX 86寸测评

    估计大伙儿看到86英寸价格7999元就兴奋起来了,这

  • 教你怎么PC电脑正确播放4K HDR电影【potpla

    如果观看4K HDR视频和电影的时候,使用不正确的方

  • PC党到底有没有必要入手播放器?

    打个比方,我现在的电脑利用potplayer+lav+madvr

  • 刚买了个好东西:16T的单碟移动硬盘。

    刚买了个好东西:16T的单碟移动硬盘。中亚上买的

  • 在线客服

  • 返回顶部