微博 微信

Hao4K影音

[美剧] 婚外情事 第四季4k The.Affair.S04.2160p.美剧下载

昨天 14:21 37533 3 |只看大图 回帖奖励 |倒序浏览 |阅读模式

大红色 楼主

2021-1-29 14:30:09

电视剧频道
电视剧封面:
电视剧名: 婚外情事 第四季4k
年  代: 2018  
国  家: -
类  别: 剧情 
语  言: 英语
字  幕: -
上映日期: 2018-06-17
文件格式: mkv    
视频效果: 4K(3840x2160)    
资源大小: 55.66 GB
片  长: 60 分钟
导  演: 迈克·菲吉斯
剧情简介: 在第四季中,Noah、Helen、Alison和Cole远离了彼此,生活在自己的圈子中。想当初他们的命运是如此纠缠,现在他们却日渐疏远。每个角色都有了新的爱情,但他们都面临艰难的抉择:他们是否已经做好了彻底忘记过去的准备?在新的开始和悲剧的结局之间,他们是否还有获得救赎和原谅的可能?Sanaa Lathan本季扮演Noah工作的特效学校的校长Jenelle,为人非常冷酷。学校的管理层和教职员工都对她不满,每件事都在和她作对。Ramon Rodriguez扮演海军陆战队退伍老兵Ben,目前为退伍军人健康管理局工作。他有一定程度的创伤后应激障碍症,担任悲伤心理治疗师的Alison很快和他有了交集。Russell Hornsby、Christopher Meyer、Amy Irving和Phoebe Tonkin在第四季中客座演出。
婚外情事 第四季4k The.Affair.S04.2160p.WEBRip.DDP5.1.x265美剧信息
  1. Video
  2. ID : 1
  3. Format : HEVC
  4. Format/Info : High Efficiency Video Coding
  5. Format profile : Main@L5@High
  6. Codec ID : V_MPEGH/ISO/HEVC
  7. Duration : 1 h 15 min
  8. Bit rate : 13.0 Mb/s
  9. Width : 3 840 pixels
  10. Height : 2 160 pixels
  11. Display aspect ratio : 16:9
  12. Frame rate mode : Constant
  13. Frame rate : 23.976 (24000/1001) FPS
  14. Color space : YUV
  15. Chroma subsampling : 4:2:0
  16. Bit depth : 8 bits
  17. Bits/(Pixel*Frame) : 0.066
  18. Stream size : 6.83 GiB (95%)
  19. Language : English
  20. Default : Yes
  21. Forced : No
  22. Color range : Limited
  23. Matrix coefficients : BT.2020 non-constant
  24. Statistics Tags Issue : no_variable_data 1970-01-01 00:00:00 / no_variable_data 2010-02-22 21:41:29
  25. FromStats_BitRate : 13302942
  26. FromStats_Duration : 01:15:00.501000000
  27. FromStats_FrameCount : 107904
  28. FromStats_StreamSize : 7483738271

  29. Audio
  30. ID : 2
  31. Format : E-AC-3
  32. Format/Info : Enhanced AC-3
  33. Commercial name : Dolby Digital Plus
  34. Codec ID : A_EAC3
  35. Duration : 1 h 15 min
  36. Bit rate mode : Constant
  37. Bit rate : 448 kb/s
  38. Channel(s) : 6 channels
  39. Channel layout : L R C LFE Ls Rs
  40. Sampling rate : 48.0 kHz
  41. Frame rate : 31.250 FPS (1536 SPF)
  42. Compression mode : Lossy
  43. Stream size : 240 MiB (3%)
  44. Language : English
  45. Service kind : Complete Main
  46. Default : Yes
  47. Forced : No
  48. Statistics Tags Issue : no_variable_data 1970-01-01 00:00:00 / no_variable_data 2010-02-22 21:41:29
  49. FromStats_BitRate : 448000
  50. FromStats_Duration : 01:15:00.512000000
  51. FromStats_FrameCount : 140641
  52. FromStats_StreamSize : 252028672

  53. Text
  54. ID : 3
  55. Format : UTF-8
  56. Codec ID : S_TEXT/UTF8
  57. Codec ID/Info : UTF-8 Plain Text
  58. Title : English (SDH)
  59. Language : English
  60. Default : No
  61. Forced : No
  62. Statistics Tags Issue : no_variable_data 1970-01-01 00:00:00 / no_variable_data 2010-02-22 21:41:29
  63. FromStats_BitRate : 71
  64. FromStats_Duration : 01:14:30.379000000
  65. FromStats_FrameCount : 1424
  66. FromStats_StreamSize : 39778
复制代码

婚外情事 第四季4k The.Affair.S04.2160p.WEBRip.DDP5.1.x265美剧下载【55.66 GB】
[Hao4k]婚外情事 第三季4k The.Affair.S04.2160p.WEBRip.DDP5.1.x265-PETRiFiED[rartv].torrent (140.34 KB)
分享到:  QQ好友和群QQ好友和群
回复

使用道具 举报

全部回复3

沙发
nbmsa 发表于 2021-1-29 14:55:23

nbmsa 沙发

2021-1-29 14:55:23

婚外情事第一季。。。。来一个吧,先谢了
回复 支持 反对

使用道具 举报

板凳
叉子同学 发表于 3 天前

叉子同学 板凳

3 天前

就缺第一季了!!!
回复 支持 反对

使用道具 举报

地板
ly000111 发表于 昨天 14:21

ly000111 地板

昨天 14:21

就缺第一季了!!!
回复 支持 反对

使用道具 举报

   发表回复

您需要登录后才可以回帖 登录 | 立即注册

返回列表 本版积分规则

:
白银玩家
:
未填写

主题

帖子

积分995

图文推荐

  • PC党到底有没有必要入手播放器?

    打个比方,我现在的电脑利用potplayer+lav+madvr

  • 刚买了个好东西:16T的单碟移动硬盘。

    刚买了个好东西:16T的单碟移动硬盘。中亚上买的

  • 4K新手怎么入门?教你怎么顺利完美播放4k电

    最近呢都有很多萌新在问我入门4k怎么玩,怎么玩更

  • 小米82吋是能进电梯最大的尺寸吗?

    小米82吋是能进电梯最大的尺寸吗?,还有就是这个

  • 【详解】什么是eArc?与ARC有什么区别?

    自HDMI 1.4 版以来,ARC 已成为HDMI 标准的一

  • 在线客服

  • 返回顶部