微博 微信

Hao4K影音

电影频道
电影封面:
片  名: 马拉的故事4k
电影分类: 爱情片 
国  家: 印度 
年  代: 2021年
分 辨 率: 4K(3840x2160)
电影格式: MKV|REMUX 
画质标准: 其他 
音质编码: Dolby Digital Audio 
电影声道: 其他 
帧数/FPS: 50.000 FPS
电影语言: 英文原版 
资源大小: 44.27 GB
导  演: Dhilip Kumar
豆瓣评分: 7.7 分
中文字幕: -
剧情简介: When Paaru sees a fairy tale she heard from a stranger as a child painted across the walls of a coastal town, she goes in search of the man who painted it-Maara.
马拉的故事4k A.Discovery.Of.Witches.S02.2160p.AUHDTV.x265印度电影信息
  1. Video
  2. Format : HEVC
  3. Format/Info : High Efficiency Video Coding
  4. Codec ID : V_MPEGH/ISO/HEVC
  5. Duration : 2 h 29 min
  6. Bit rate : 4 500 kb/s
  7. Width : 3 840 pixels
  8. Height : 1 600 pixels
  9. Display aspect ratio : 2.40:1
  10. Frame rate mode : Constant
  11. Frame rate : 24.000 FPS
  12. Color space : YUV
  13. Chroma subsampling : 4:2:0
  14. Bit depth : 10 bits
  15. Bits/(Pixel*Frame) : 0.031
  16. Stream size : 4.70 GiB (88%)
  17. Writing library : x265 3.2+31-6b348d5b56d8:[Windows][GCC 9.2.0][64 bit] 10bit
  18. Encoding settings : cpuid=1111039 / frame-threads=4 / numa-pools=24 / wpp / no-pmode / no-pme / no-psnr / no-ssim / log-level=2 / input-csp=1 / input-res=3840x1600 / interlace=0 / total-frames=215506 / level-idc=50 / high-tier=1 / uhd-bd=0 / ref=3 / no-allow-non-conformance / no-repeat-headers / annexb / no-aud / no-hrd / info / hash=0 / no-temporal-layers / open-gop / min-keyint=24 / keyint=250 / gop-lookahead=0 / bframes=4 / b-adapt=2 / b-pyramid / bframe-bias=0 / rc-lookahead=20 / lookahead-slices=8 / scenecut=40 / hist-scenecut=0 / radl=0 / no-splice / no-intra-refresh / ctu=64 / min-cu-size=8 / no-rect / no-amp / max-tu-size=32 / tu-inter-depth=1 / tu-intra-depth=1 / limit-tu=0 / rdoq-level=0 / dynamic-rd=0.00 / no-ssim-rd / signhide / no-tskip / nr-intra=0 / nr-inter=0 / no-constrained-intra / strong-intra-smoothing / max-merge=3 / limit-refs=1 / no-limit-modes / me=1 / subme=5 / merange=57 / temporal-mvp / no-frame-dup / no-hme / weightp / no-weightb / no-analyze-src-pics / deblock=0:0 / sao / no-sao-non-deblock / rd=3 / selective-sao=4 / early-skip / rskip / no-fast-intra / no-tskip-fast / no-cu-lossless / b-intra / no-splitrd-skip / rdpenalty=0 / psy-rd=2.00 / psy-rdoq=0.00 / no-rd-refine / no-lossless / cbqpoffs=0 / crqpoffs=0 / rc=abr / bitrate=4500 / qcomp=0.60 / qpstep=4 / stats-write=0 / stats-read=2 / cplxblur=20.0 / qblur=0.5 / ipratio=1.40 / pbratio=1.30 / aq-mode=3 / aq-strength=0.40 / cutree / zone-count=0 / no-strict-cbr / qg-size=32 / no-rc-grain / qpmax=69 / qpmin=0 / no-const-vbv / sar=0 / overscan=0 / videoformat=5 / range=0 / colorprim=1 / transfer=1 / colormatrix=1 / chromaloc=0 / display-window=0 / cll=0,0 / min-luma=0 / max-luma=1023 / log2-max-poc-lsb=8 / vui-timing-info / vui-hrd-info / slices=1 / no-opt-qp-pps / no-opt-ref-list-length-pps / no-multi-pass-opt-rps / scenecut-bias=0.05 / hist-threshold=0.01 / no-opt-cu-delta-qp / no-aq-motion / no-hdr10 / no-hdr10-opt / no-dhdr10-opt / no-idr-recovery-sei / analysis-reuse-level=5 / scale-factor=0 / refine-intra=0 / refine-inter=0 / refine-mv=1 / refine-ctu-distortion=0 / no-limit-sao / ctu-info=0 / no-lowpass-dct / refine-analysis-type=0 / copy-pic=1 / max-ausize-factor=1.0 / no-dynamic-refine / no-single-sei / no-hevc-aq / no-svt / no-field / qp-adaptation-range=1.00 / no-scenecut-aware-qp
  19. Color range : Limited
  20. Color primaries : BT.709
  21. Transfer characteristics : BT.709
  22. Matrix coefficients : BT.709

  23. Audio
  24. Format : E-AC-3
  25. Format/Info : Enhanced AC-3
  26. Commercial name : Dolby Digital Plus
  27. Codec ID : A_EAC3
  28. Duration : 2 h 29 min
  29. Bit rate mode : Constant
  30. Bit rate : 640 kb/s
  31. Channel(s) : 6 channels
  32. Channel layout : L R C LFE Ls Rs
  33. Sampling rate : 48.0 kHz
  34. Frame rate : 31.250 FPS (1536 SPF)
  35. Compression mode : Lossy
  36. Stream size : 685 MiB (12%)
  37. Language : Tamil

  38. Subtitle
  39. Format : UTF-8
  40. Codec ID : S_TEXT/UTF8
  41. Codec ID/Info : UTF-8 Plain Text
  42. Duration : 2 h 25 min
  43. Bit rate : 55 b/s
  44. Count of elements : 1964
  45. Stream size : 59.0 KiB (0%)
  46. Language : English

  47. Chapters
  48. 00:00:00.000 : Studio Logo
  49. 00:00:53.000 : Meenakshi tells a story to Paaru
  50. 00:05:46.000 : Opening Credits, Title Sequence
  51. 00:09:02.000 : Paaru leaves her home
  52. 00:17:56.000 : Paaru shifts to Maara's home
  53. 00:24:36.000 : Maara and a thief become friends
  54. 00:37:12.000 : Paaru tries to find the missing pages from the book
  55. 00:42:12.000 : Usman tells Paaru about Maara
  56. 00:49:46.000 : Afzal and Paaru follow Chokku
  57. 00:56:19.000 : Maara is dead
  58. 01:02:05.000 : Maara throws a party to his dear ones
  59. 01:09:18.000 : Maara saves Rani
  60. 01:17:29.000 : Maara meets Vellaiya in train
  61. 01:21:57.000 : Paaru meets the thief
  62. 01:26:33.000 : Paaru goes in search of Kani
  63. 01:34:13.000 : Vellaiya tells about his love story
  64. 01:40:24.000 : Kani tells Paaru how she met Maara
  65. 01:48:39.000 : Kani starts a new life
  66. 01:54:54.000 : Vellaiya shows a photograph of Meenakshi to Paaru
  67. 02:03:37.000 : Maara explains Kani why he is searching for a person
  68. 02:12:41.000 : Paaru surprises Vellaiya
  69. 02:19:03.000 : Maara meets Paaru
  70. 02:26:28.000 : End Credits
复制代码

马拉的故事4k A.Discovery.Of.Witches.S02.2160p.AUHDTV.x265印度电影下载

马拉的故事4k A.Discovery.Of.Witches.S02.2160p.AUHDTV.x265【5.4 GB】
马拉的故事4k.txt (92 Bytes)
回复

使用道具 举报

全部回复9

开心加菲 发表于 2021-1-30 14:47:21

开心加菲 沙发

2021-1-30 14:47:21

谢谢分享,喜欢印度电影
回复 支持 反对

使用道具 举报

ywf6168 发表于 2021-1-31 00:03:00

ywf6168 板凳

2021-1-31 00:03:00

谢谢分享,喜欢印度电影
回复 支持 反对

使用道具 举报

yangly 发表于 2021-1-31 10:39:18

yangly 地板

2021-1-31 10:39:18

喜欢印度电影
回复 支持 反对

使用道具 举报

zocke 发表于 2021-1-31 14:34:57

zocke 5#

2021-1-31 14:34:57

印度电影还挺好看的
回复 支持 反对

使用道具 举报

jbltw 发表于 2021-2-1 17:45:40

jbltw 6#

2021-2-1 17:45:40

还挺好看的
回复 支持 反对

使用道具 举报

canlanxingkong 发表于 2021-2-2 10:58:36

canlanxingkong 7#

2021-2-2 10:58:36

哪里有字幕呢?
回复 支持 反对

使用道具 举报

lywzj238 发表于 2021-2-2 16:13:56

lywzj238 8#

2021-2-2 16:13:56

谢谢分享好电影
回复 支持 反对

使用道具 举报

银色火狐 发表于 2021-2-3 15:46:07

银色火狐 9#

2021-2-3 15:46:07


谢谢分享好电影
回复 支持 反对

使用道具 举报

jbltw 发表于 2021-2-3 21:30:01

jbltw 10#

2021-2-3 21:30:01

还挺好看的
回复 支持 反对

使用道具 举报

   发表回复

您需要登录后才可以回帖 登录 | 立即注册

返回列表 本版积分规则

  • 在线客服

  • 返回顶部