微博 微信

Hao4K影音

电影频道
电影封面:
片  名: 极速人生:方吉奥的故事4K
电影分类: 纪录片 传记 其他 
国  家: 其他 
年  代: 2020年
分 辨 率: 4K(3840x2160)
电影格式: MKV|REMUX 
画质标准: SDR 
音质编码: Dolby Digital Plus Audio 其他DD 
电影声道: 5.1声道 
帧数/FPS: 23.976 FPS
电影语言: 英文原版 
资源大小: 7.73 GB
导  演: Francisco Macri
豆瓣评分: 6.8 分
中文字幕: -
剧情简介: 一級方程式賽車之王胡安·曼努埃爾·范吉歐曾於 1950 年代初勇奪五次世界冠軍,在那不知防護裝備和安全功能為何物的年代。
Fangio:車壇聖手的風光背後(港) / 范吉歐:馭車之神(台) / 范吉奥:一代车神(新加坡) / A Life of Speed: The Juan Manuel Fangio Story/极速人生:方吉奥的故事4KA.Life.of.Speed.The.Juan.Manuel.Fangio.Story.2020.SPANISH.2160p.NF.WEB-DL.x265.10bit.SDR.DDP5.1电影信息
  1. Video
  2. ID : 1
  3. Format : HEVC
  4. Format/Info : High Efficiency Video Coding
  5. Format profile : Main 10@L5@Main
  6. Codec ID : V_MPEGH/ISO/HEVC
  7. Duration : 1 h 32 min
  8. Bit rate : 11.3 Mb/s
  9. Width : 3 840 pixels
  10. Height : 2 160 pixels
  11. Display aspect ratio : 16:9
  12. Frame rate mode : Constant
  13. Frame rate : 23.976 (24000/1001) FPS
  14. Color space : YUV
  15. Chroma subsampling : 4:2:0
  16. Bit depth : 10 bits
  17. Bits/(Pixel*Frame) : 0.057
  18. Stream size : 7.32 GiB (95%)
  19. Default : Yes
  20. Forced : No
  21. Color range : Limited
  22. Color primaries : BT.709
  23. Transfer characteristics : BT.709
  24. Matrix coefficients : BT.709

  25. Audio
  26. ID : 2
  27. Format : E-AC-3
  28. Format/Info : Enhanced AC-3
  29. Commercial name : Dolby Digital Plus
  30. Codec ID : A_EAC3
  31. Duration : 1 h 32 min
  32. Bit rate mode : Constant
  33. Bit rate : 640 kb/s
  34. Channel(s) : 6 channels
  35. Channel layout : L R C LFE Ls Rs
  36. Sampling rate : 48.0 kHz
  37. Frame rate : 31.250 FPS (1536 SPF)
  38. Compression mode : Lossy
  39. Stream size : 423 MiB (5%)
  40. Title : DDP 5 .1
  41. Language : Spanish
  42. Service kind : Complete Main
  43. Default : Yes
  44. Forced : No

  45. Text #1
  46. ID : 3
  47. Format : UTF-8
  48. Codec ID : S_TEXT/UTF8
  49. Codec ID/Info : UTF-8 Plain Text
  50. Duration : 1 h 27 min
  51. Bit rate : 50 b/s
  52. Count of elements : 811
  53. Stream size : 32.5 KiB (0%)
  54. Language : English
  55. Default : Yes
  56. Forced : Yes

  57. Text #2
  58. ID : 4
  59. Format : UTF-8
  60. Codec ID : S_TEXT/UTF8
  61. Codec ID/Info : UTF-8 Plain Text
  62. Duration : 1 h 32 min
  63. Bit rate : 77 b/s
  64. Count of elements : 1239
  65. Stream size : 52.4 KiB (0%)
  66. Language : Danish
  67. Default : No
  68. Forced : No

  69. Text #3
  70. ID : 5
  71. Format : UTF-8
  72. Codec ID : S_TEXT/UTF8
  73. Codec ID/Info : UTF-8 Plain Text
  74. Duration : 1 h 27 min
  75. Bit rate : 50 b/s
  76. Count of elements : 718
  77. Stream size : 32.7 KiB (0%)
  78. Title : FORCED
  79. Language : Spanish
  80. Default : No
  81. Forced : No

  82. Text #4
  83. ID : 6
  84. Format : UTF-8
  85. Codec ID : S_TEXT/UTF8
  86. Codec ID/Info : UTF-8 Plain Text
  87. Duration : 1 h 32 min
  88. Bit rate : 143 b/s
  89. Count of elements : 1302
  90. Stream size : 96.8 KiB (0%)
  91. Language : Arabic
  92. Default : No
  93. Forced : No

  94. Text #5
  95. ID : 7
  96. Format : UTF-8
  97. Codec ID : S_TEXT/UTF8
  98. Codec ID/Info : UTF-8 Plain Text
  99. Duration : 1 h 31 min
  100. Bit rate : 73 b/s
  101. Count of elements : 1285
  102. Stream size : 49.4 KiB (0%)
  103. Language : Czech
  104. Default : No
  105. Forced : No

  106. Text #6
  107. ID : 8
  108. Format : UTF-8
  109. Codec ID : S_TEXT/UTF8
  110. Codec ID/Info : UTF-8 Plain Text
  111. Duration : 1 h 28 min
  112. Bit rate : 93 b/s
  113. Count of elements : 1336
  114. Stream size : 60.9 KiB (0%)
  115. Title : SDH
  116. Language : Spanish
  117. Default : No
  118. Forced : No

  119. Text #7
  120. ID : 9
  121. Format : UTF-8
  122. Codec ID : S_TEXT/UTF8
  123. Codec ID/Info : UTF-8 Plain Text
  124. Duration : 1 h 32 min
  125. Bit rate : 78 b/s
  126. Count of elements : 1265
  127. Stream size : 52.8 KiB (0%)
  128. Language : Finnish
  129. Default : No
  130. Forced : No

  131. Text #8
  132. ID : 10
  133. Format : UTF-8
  134. Codec ID : S_TEXT/UTF8
  135. Codec ID/Info : UTF-8 Plain Text
  136. Duration : 1 h 32 min
  137. Bit rate : 84 b/s
  138. Count of elements : 1274
  139. Stream size : 56.9 KiB (0%)
  140. Language : French
  141. Default : No
  142. Forced : No

  143. Text #9
  144. ID : 11
  145. Format : UTF-8
  146. Codec ID : S_TEXT/UTF8
  147. Codec ID/Info : UTF-8 Plain Text
  148. Duration : 1 h 29 min
  149. Bit rate : 83 b/s
  150. Count of elements : 1167
  151. Stream size : 54.9 KiB (0%)
  152. Language : German
  153. Default : No
  154. Forced : No

  155. Text #10
  156. ID : 12
  157. Format : UTF-8
  158. Codec ID : S_TEXT/UTF8
  159. Codec ID/Info : UTF-8 Plain Text
  160. Duration : 1 h 32 min
  161. Bit rate : 143 b/s
  162. Count of elements : 1368
  163. Stream size : 97.2 KiB (0%)
  164. Language : Greek
  165. Default : No
  166. Forced : No

  167. Text #11
  168. ID : 13
  169. Format : UTF-8
  170. Codec ID : S_TEXT/UTF8
  171. Codec ID/Info : UTF-8 Plain Text
  172. Duration : 1 h 32 min
  173. Bit rate : 123 b/s
  174. Count of elements : 1314
  175. Stream size : 83.2 KiB (0%)
  176. Language : Hebrew
  177. Default : No
  178. Forced : No

  179. Text #12
  180. ID : 14
  181. Format : UTF-8
  182. Codec ID : S_TEXT/UTF8
  183. Codec ID/Info : UTF-8 Plain Text
  184. Duration : 1 h 32 min
  185. Bit rate : 79 b/s
  186. Count of elements : 1290
  187. Stream size : 54.0 KiB (0%)
  188. Language : Hungarian
  189. Default : No
  190. Forced : No

  191. Text #13
  192. ID : 15
  193. Format : UTF-8
  194. Codec ID : S_TEXT/UTF8
  195. Codec ID/Info : UTF-8 Plain Text
  196. Duration : 1 h 32 min
  197. Bit rate : 77 b/s
  198. Count of elements : 1140
  199. Stream size : 52.3 KiB (0%)
  200. Language : Norwegian Bokmal
  201. Default : No
  202. Forced : No

  203. Text #14
  204. ID : 16
  205. Format : UTF-8
  206. Codec ID : S_TEXT/UTF8
  207. Codec ID/Info : UTF-8 Plain Text
  208. Duration : 1 h 29 min
  209. Bit rate : 87 b/s
  210. Count of elements : 1260
  211. Stream size : 57.0 KiB (0%)
  212. Title : Brasil
  213. Language : Portuguese
  214. Default : No
  215. Forced : No

  216. Text #15
  217. ID : 17
  218. Format : UTF-8
  219. Codec ID : S_TEXT/UTF8
  220. Codec ID/Info : UTF-8 Plain Text
  221. Duration : 1 h 32 min
  222. Bit rate : 79 b/s
  223. Count of elements : 1272
  224. Stream size : 53.5 KiB (0%)
  225. Language : Portuguese
  226. Default : No
  227. Forced : No

  228. Text #16
  229. ID : 18
  230. Format : UTF-8
  231. Codec ID : S_TEXT/UTF8
  232. Codec ID/Info : UTF-8 Plain Text
  233. Duration : 1 h 32 min
  234. Bit rate : 75 b/s
  235. Count of elements : 1184
  236. Stream size : 51.1 KiB (0%)
  237. Language : Dutch
  238. Default : No
  239. Forced : No

  240. Text #17
  241. ID : 19
  242. Format : UTF-8
  243. Codec ID : S_TEXT/UTF8
  244. Codec ID/Info : UTF-8 Plain Text
  245. Duration : 1 h 32 min
  246. Bit rate : 80 b/s
  247. Count of elements : 1269
  248. Stream size : 54.3 KiB (0%)
  249. Language : Turkish
  250. Default : No
  251. Forced : No

  252. Text #18
  253. ID : 20
  254. Format : UTF-8
  255. Codec ID : S_TEXT/UTF8
  256. Codec ID/Info : UTF-8 Plain Text
  257. Duration : 1 h 32 min
  258. Bit rate : 126 b/s
  259. Count of elements : 1284
  260. Stream size : 85.2 KiB (0%)
  261. Language : Russian
  262. Default : No
  263. Forced : No

  264. Text #19
  265. ID : 21
  266. Format : UTF-8
  267. Codec ID : S_TEXT/UTF8
  268. Codec ID/Info : UTF-8 Plain Text
  269. Duration : 1 h 32 min
  270. Bit rate : 71 b/s
  271. Count of elements : 1104
  272. Stream size : 48.5 KiB (0%)
  273. Language : Italian
  274. Default : No
  275. Forced : No

  276. Text #20
  277. ID : 22
  278. Format : UTF-8
  279. Codec ID : S_TEXT/UTF8
  280. Codec ID/Info : UTF-8 Plain Text
  281. Duration : 1 h 32 min
  282. Bit rate : 76 b/s
  283. Count of elements : 1307
  284. Stream size : 51.7 KiB (0%)
  285. Language : Polish
  286. Default : No
  287. Forced : No

  288. Text #21
  289. ID : 23
  290. Format : UTF-8
  291. Codec ID : S_TEXT/UTF8
  292. Codec ID/Info : UTF-8 Plain Text
  293. Duration : 1 h 32 min
  294. Bit rate : 78 b/s
  295. Count of elements : 1276
  296. Stream size : 52.8 KiB (0%)
  297. Language : Swedish
  298. Default : No
  299. Forced : No

  300. Text #22
  301. ID : 24
  302. Format : UTF-8
  303. Codec ID : S_TEXT/UTF8
  304. Codec ID/Info : UTF-8 Plain Text
  305. Duration : 1 h 32 min
  306. Bit rate : 86 b/s
  307. Count of elements : 1251
  308. Stream size : 58.2 KiB (0%)
  309. Language : Romanian
  310. Default : No
  311. Forced : No
复制代码

Fangio:車壇聖手的風光背後(港) / 范吉歐:馭車之神(台) / 范吉奥:一代车神(新加坡) / A Life of Speed: The Juan Manuel Fangio Story/极速人生:方吉奥的故事4KA.Life.of.Speed.The.Juan.Manuel.Fangio.Story.2020.SPANISH.2160p.NF.WEB-DL.x265.10bit.SDR.DDP5.1电影下载

极速人生:方吉奥的故事4KA.Life.of.Speed.The.Juan.Manuel.Fangio.Story.2020.SPANISH.2160p.NF.WEB-DL.x265.10bit.SDR.DDP5.1【7.73 GB】
[Hao4k]极速人生:方吉奥的故事4k A.Life.of.Speed.The.Juan.Manuel.Fangio.Story.202.torrent (39.3 KB)
回复

使用道具 举报

全部回复21

chuchan1 发表于 2021-1-30 14:53:15

chuchan1 沙发

2021-1-30 14:53:15

谢谢楼主共享!
回复 支持 反对

使用道具 举报

yale 发表于 2021-1-30 21:35:12

yale 板凳

2021-1-30 21:35:12

谢谢分享
回复 支持 反对

使用道具 举报

世爵39 发表于 2021-1-30 22:19:09

世爵39 地板

2021-1-30 22:19:09

有内含的电影
回复 支持 反对

使用道具 举报

lazy007 发表于 2021-1-30 22:44:11

lazy007 5#

2021-1-30 22:44:11

非常好的资源 谢谢楼主
回复 支持 反对

使用道具 举报

月光麦田 发表于 2021-1-31 10:25:38

月光麦田 6#

2021-1-31 10:25:38

很好看的传记片
回复 支持 反对

使用道具 举报

sunsaga 发表于 2021-1-31 17:28:40

sunsaga 7#

2021-1-31 17:28:40


谢谢楼主共享!
回复 支持 反对

使用道具 举报

yale 发表于 2021-1-31 22:37:50

yale 8#

2021-1-31 22:37:50

谢谢分享
回复 支持 反对

使用道具 举报

山水土长 发表于 2021-1-31 22:44:47 Hao4K手机版

山水土长 9#

2021-1-31 22:44:47

谢谢分享
回复 支持 反对

使用道具 举报

ww6 发表于 2021-2-1 10:41:06

ww6 10#

2021-2-1 10:41:06

谢谢分享
回复 支持 反对

使用道具 举报

liumangzz 发表于 2021-2-2 08:39:21

liumangzz 11#

2021-2-2 08:39:21

谢谢楼主共享!
回复 支持 反对

使用道具 举报

xxw8888 发表于 2021-2-2 11:10:00

xxw8888 12#

2021-2-2 11:10:00

谢谢楼主共享
回复 支持 反对

使用道具 举报

yangly 发表于 2021-2-2 11:19:46

yangly 13#

2021-2-2 11:19:46

很好看的传记片
回复 支持 反对

使用道具 举报

lch1164840694 发表于 2021-2-3 09:21:44

lch1164840694 14#

2021-2-3 09:21:44

感谢楼主
回复 支持 反对

使用道具 举报

mengba17 发表于 2021-2-3 14:23:01

mengba17 15#

2021-2-3 14:23:01

有字幕吗?
回复 支持 反对

使用道具 举报

jeandy1368 发表于 2021-2-4 11:33:28

jeandy1368 16#

2021-2-4 11:33:28

咋没有中文字幕呢?
回复 支持 反对

使用道具 举报

zocke 发表于 2021-2-5 16:02:08

zocke 17#

2021-2-5 16:02:08

风驰电掣般的电影
回复 支持 反对

使用道具 举报

bgsdhTC 发表于 2021-2-10 14:05:15

bgsdhTC 18#

2021-2-10 14:05:15

感谢楼主无私奉献,祝坛友牛年大吉
回复 支持 反对

使用道具 举报

   发表回复

您需要登录后才可以回帖 登录 | 立即注册

返回列表 本版积分规则

  • 在线客服

  • 返回顶部