微博 微信

Hao4K影音

电影频道
电影封面:
片  名: 超极限4k
电影分类: 剧情 
国  家: 意大利 
年  代: 2020年
分 辨 率: 4K(3840x2160)
电影格式: MKV|REMUX 
画质标准: SDR 
音质编码: Dolby Digital Plus Audio 其他DD 
电影声道: 5.1声道 
帧数/FPS: 25.000 FPS
电影语言: 英文原版 
资源大小: 9.34 GB
导  演: Francesco Lettieri
豆瓣评分: 5.9 分
中文字幕: -
剧情简介: 一名年迈的足球铁粉正视过去的事实,同时奋力为自己和一位年轻的追随者创造截然不同的未来。
足球铁粉(台) / 铁杆球迷/超极限4k Ultras.2020.ITALIAN.2160p.NF.WEB-DL.x265.10bit.SDR.DDP5.1.电影信息
  1. Video
  2. ID : 1
  3. Format : HEVC
  4. Format/Info : High Efficiency Video Coding
  5. Format profile : Main 10@L5@Main
  6. Codec ID : V_MPEGH/ISO/HEVC
  7. Duration : 1 h 49 min
  8. Bit rate : 11.6 Mb/s
  9. Width : 3 840 pixels
  10. Height : 2 160 pixels
  11. Display aspect ratio : 16:9
  12. Frame rate mode : Constant
  13. Frame rate : 25.000 FPS
  14. Color space : YUV
  15. Chroma subsampling : 4:2:0
  16. Bit depth : 10 bits
  17. Bits/(Pixel*Frame) : 0.056
  18. Stream size : 8.84 GiB (95%)
  19. Default : Yes
  20. Forced : No
  21. Color range : Limited
  22. Color primaries : BT.709
  23. Transfer characteristics : BT.709
  24. Matrix coefficients : BT.709

  25. Audio
  26. ID : 2
  27. Format : E-AC-3
  28. Format/Info : Enhanced AC-3
  29. Commercial name : Dolby Digital Plus
  30. Codec ID : A_EAC3
  31. Duration : 1 h 49 min
  32. Bit rate mode : Constant
  33. Bit rate : 640 kb/s
  34. Channel(s) : 6 channels
  35. Channel layout : L R C LFE Ls Rs
  36. Sampling rate : 48.0 kHz
  37. Frame rate : 31.250 FPS (1536 SPF)
  38. Compression mode : Lossy
  39. Stream size : 499 MiB (5%)
  40. Title : DDP 5.1
  41. Language : Italian
  42. Service kind : Complete Main
  43. Default : Yes
  44. Forced : No

  45. Text #1
  46. ID : 3
  47. Format : UTF-8
  48. Codec ID : S_TEXT/UTF8
  49. Codec ID/Info : UTF-8 Plain Text
  50. Duration : 1 h 47 min
  51. Bit rate : 54 b/s
  52. Count of elements : 1435
  53. Stream size : 42.8 KiB (0%)
  54. Title : SDH
  55. Language : English
  56. Default : Yes
  57. Forced : Yes

  58. Text #2
  59. ID : 4
  60. Format : UTF-8
  61. Codec ID : S_TEXT/UTF8
  62. Codec ID/Info : UTF-8 Plain Text
  63. Duration : 1 h 47 min
  64. Bit rate : 81 b/s
  65. Count of elements : 1343
  66. Stream size : 63.9 KiB (0%)
  67. Language : Greek
  68. Default : No
  69. Forced : No

  70. Text #3
  71. ID : 5
  72. Format : UTF-8
  73. Codec ID : S_TEXT/UTF8
  74. Codec ID/Info : UTF-8 Plain Text
  75. Duration : 1 h 47 min
  76. Bit rate : 46 b/s
  77. Count of elements : 1301
  78. Stream size : 36.5 KiB (0%)
  79. Language : Danish
  80. Default : No
  81. Forced : No

  82. Text #4
  83. ID : 6
  84. Format : UTF-8
  85. Codec ID : S_TEXT/UTF8
  86. Codec ID/Info : UTF-8 Plain Text
  87. Duration : 1 h 47 min
  88. Bit rate : 46 b/s
  89. Count of elements : 1340
  90. Stream size : 36.4 KiB (0%)
  91. Language : German
  92. Default : No
  93. Forced : No

  94. Text #5
  95. ID : 7
  96. Format : UTF-8
  97. Codec ID : S_TEXT/UTF8
  98. Codec ID/Info : UTF-8 Plain Text
  99. Duration : 1 h 41 min
  100. Bit rate : 50 b/s
  101. Count of elements : 1291
  102. Stream size : 37.4 KiB (0%)
  103. Language : English
  104. Default : No
  105. Forced : No

  106. Text #6
  107. ID : 8
  108. Format : UTF-8
  109. Codec ID : S_TEXT/UTF8
  110. Codec ID/Info : UTF-8 Plain Text
  111. Duration : 1 h 47 min
  112. Bit rate : 83 b/s
  113. Count of elements : 1347
  114. Stream size : 65.6 KiB (0%)
  115. Language : Arabic
  116. Default : No
  117. Forced : No

  118. Text #7
  119. ID : 9
  120. Format : UTF-8
  121. Codec ID : S_TEXT/UTF8
  122. Codec ID/Info : UTF-8 Plain Text
  123. Duration : 1 h 47 min
  124. Bit rate : 45 b/s
  125. Count of elements : 1344
  126. Stream size : 35.8 KiB (0%)
  127. Language : Czech
  128. Default : No
  129. Forced : No

  130. Text #8
  131. ID : 10
  132. Format : UTF-8
  133. Codec ID : S_TEXT/UTF8
  134. Codec ID/Info : UTF-8 Plain Text
  135. Duration : 1 h 46 min
  136. Bit rate : 15 b/s
  137. Count of elements : 341
  138. Stream size : 12.1 KiB (0%)
  139. Title : FORCED
  140. Language : Italian
  141. Default : No
  142. Forced : No

  143. Text #9
  144. ID : 11
  145. Format : UTF-8
  146. Codec ID : S_TEXT/UTF8
  147. Codec ID/Info : UTF-8 Plain Text
  148. Duration : 1 h 40 min
  149. Bit rate : 63 b/s
  150. Count of elements : 1425
  151. Stream size : 46.5 KiB (0%)
  152. Title : SDH
  153. Language : Italian
  154. Default : No
  155. Forced : No

  156. Text #10
  157. ID : 12
  158. Format : UTF-8
  159. Codec ID : S_TEXT/UTF8
  160. Codec ID/Info : UTF-8 Plain Text
  161. Duration : 1 h 47 min
  162. Bit rate : 41 b/s
  163. Count of elements : 976
  164. Stream size : 33.0 KiB (0%)
  165. Language : Finnish
  166. Default : No
  167. Forced : No

  168. Text #11
  169. ID : 13
  170. Format : UTF-8
  171. Codec ID : S_TEXT/UTF8
  172. Codec ID/Info : UTF-8 Plain Text
  173. Duration : 1 h 47 min
  174. Bit rate : 44 b/s
  175. Count of elements : 1268
  176. Stream size : 35.1 KiB (0%)
  177. Language : French
  178. Default : No
  179. Forced : No

  180. Text #12
  181. ID : 14
  182. Format : UTF-8
  183. Codec ID : S_TEXT/UTF8
  184. Codec ID/Info : UTF-8 Plain Text
  185. Duration : 1 h 47 min
  186. Bit rate : 47 b/s
  187. Count of elements : 1345
  188. Stream size : 37.0 KiB (0%)
  189. Language : Hungarian
  190. Default : No
  191. Forced : No

  192. Text #13
  193. ID : 15
  194. Format : UTF-8
  195. Codec ID : S_TEXT/UTF8
  196. Codec ID/Info : UTF-8 Plain Text
  197. Duration : 1 h 47 min
  198. Bit rate : 75 b/s
  199. Count of elements : 1346
  200. Stream size : 59.6 KiB (0%)
  201. Language : Hebrew
  202. Default : No
  203. Forced : No

  204. Text #14
  205. ID : 16
  206. Format : UTF-8
  207. Codec ID : S_TEXT/UTF8
  208. Codec ID/Info : UTF-8 Plain Text
  209. Duration : 1 h 47 min
  210. Bit rate : 46 b/s
  211. Count of elements : 1346
  212. Stream size : 36.2 KiB (0%)
  213. Language : Spanish
  214. Default : No
  215. Forced : No
复制代码

足球铁粉(台) / 铁杆球迷/超极限4k Ultras.2020.ITALIAN.2160p.NF.WEB-DL.x265.10bit.SDR.DDP5.1.电影下载

超极限4k Ultras.2020.ITALIAN.2160p.NF.WEB-DL.x265.10bit.SDR.DDP5.1【9.34 GB】
[Hao4k]超极限4k Ultras.2020.ITALIAN.2160p.NF.WEB-DL.x265.10bit.SDR.DDP5.1-SWTYBLZ.torrent (47.23 KB)
回复

使用道具 举报

全部回复21

bonna 发表于 2021-1-30 10:58:05

bonna 沙发

2021-1-30 10:58:05

支持,码率有点低。
回复 支持 反对

使用道具 举报

realuckydx 发表于 2021-1-30 14:17:34

realuckydx 板凳

2021-1-30 14:17:34

K币怎么得 啊,我充了H币没用啊
回复 支持 反对

使用道具 举报

chuchan1 发表于 2021-1-30 14:52:48

chuchan1 地板

2021-1-30 14:52:48

谢谢楼主共享!
回复 支持 反对

使用道具 举报

michaelfy 发表于 2021-1-30 17:21:00

michaelfy 5#

2021-1-30 17:21:00

感谢分享
回复 支持 反对

使用道具 举报

yale 发表于 2021-1-30 21:34:48

yale 6#

2021-1-30 21:34:48

谢谢分享
回复 支持 反对

使用道具 举报

patriotiii 发表于 2021-1-31 09:55:52

patriotiii 7#

2021-1-31 09:55:52

真的要感谢楼主,拿分也是重要的。
回复 支持 反对

使用道具 举报

zee120 发表于 2021-1-31 15:46:00

zee120 8#

2021-1-31 15:46:00


真的要感谢楼主,拿分也是重要的。
回复 支持 反对

使用道具 举报

panbell 发表于 2021-1-31 17:04:41

panbell 9#

2021-1-31 17:04:41

谢谢楼主共享!!
回复 支持 反对

使用道具 举报

bbgrnnji 发表于 2021-1-31 19:56:16

bbgrnnji 10#

2021-1-31 19:56:16

4K好电影真的太少了
回复 支持 反对

使用道具 举报

raychen850304 发表于 2021-1-31 22:30:58

raychen850304 11#

2021-1-31 22:30:58

谢谢楼主~~~~~~~~~~~~~~~
回复 支持 反对

使用道具 举报

yale 发表于 2021-1-31 22:38:10

yale 12#

2021-1-31 22:38:10

谢谢分享
回复 支持 反对

使用道具 举报

山水土长 发表于 2021-1-31 22:41:50 Hao4K手机版

山水土长 13#

2021-1-31 22:41:50


谢谢楼主共享!
回复 支持 反对

使用道具 举报

ww6 发表于 2021-2-1 10:40:20

ww6 14#

2021-2-1 10:40:20

bonna 发表于 2021-1-30 10:58
支持,码率有点低。

谢谢分享
回复 支持 反对

使用道具 举报

rwhang 发表于 2021-2-2 07:42:05 Hao4K手机版

rwhang 15#

2021-2-2 07:42:05

谢谢分享!
回复 支持 反对

使用道具 举报

kennethlin168 发表于 2021-2-2 11:24:15

kennethlin168 16#

2021-2-2 11:24:15


谢谢分享
回复 支持 反对

使用道具 举报

lch1164840694 发表于 2021-2-3 09:21:21

lch1164840694 17#

2021-2-3 09:21:21

感谢楼主感谢楼主
回复 支持 反对

使用道具 举报

ssr_ssr 发表于 2021-2-10 18:42:13

ssr_ssr 18#

2021-2-10 18:42:13

好片子
回复 支持 反对

使用道具 举报

   发表回复

您需要登录后才可以回帖 登录 | 立即注册

返回列表 本版积分规则

  • 在线客服

  • 返回顶部