微博 微信

Hao4K影音

电影频道
电影封面:
片  名: 西尔维的爱情4k
电影分类: 剧情 
国  家: 美国 
年  代: 2020年
分 辨 率: 4K(3840x2160)
电影格式: MKV|REMUX 
画质标准: HDR10 
音质编码: Dolby Digital Plus Audio 其他AAC 
电影声道: 5.1声道 
帧数/FPS: 23.976 FPS
电影语言: 中文简体 中文繁体 英文原版 
资源大小: 12.60 GB
导  演: 尤金·埃什
豆瓣评分: 6.3 分
中文字幕: -
剧情简介: 伊娃·朗格利亚加盟爵士题材剧情片《西尔维》,泰莎·汤普森主演,Eugene Ashe自编自导。讲述在50年代末纽约爵士时代,一个年轻女子在父亲位于哈莱姆区的唱片店工作时,遇到了一位雄心勃勃的萨克斯手(前NFL球员兼演员Nnamdi Asomugha饰),在经历了一段夏日恋情后,两人多年后再次相遇,发现他们之间的火花从未动摇过。
西尔维 / Sylvie/西尔维的爱情4K.Sylvies.Love.2020.2160p.AMZN.WEB-DL.x265.10bit.HDR10plus.DDP5.1-4k电影信息
  1. Video
  2. ID : 1
  3. Format : HEVC
  4. Format/Info : High Efficiency Video Coding
  5. Format profile : Main 10@L5@Main
  6. HDR format : SMPTE ST 2094 App 4, Version 1, HDR10+ Profile B compatible
  7. Codec ID : V_MPEGH/ISO/HEVC
  8. Duration : 1 h 56 min
  9. Bit rate : 14.9 Mb/s
  10. Width : 3 840 pixels
  11. Height : 2 080 pixels
  12. Display aspect ratio : 1.85:1
  13. Frame rate mode : Constant
  14. Frame rate : 23.976 (24000/1001) FPS
  15. Color space : YUV
  16. Chroma subsampling : 4:2:0
  17. Bit depth : 10 bits
  18. Bits/(Pixel*Frame) : 0.078
  19. Stream size : 12.1 GiB (96%)
  20. Default : Yes
  21. Forced : No
  22. Color range : Limited
  23. Color primaries : BT.2020
  24. Transfer characteristics : PQ
  25. Matrix coefficients : BT.2020 non-constant
  26. Mastering display color primaries : Display P3
  27. Mastering display luminance : min: 0.0001 cd/m2, max: 1000 cd/m2
  28. Maximum Content Light Level : 740 cd/m2
  29. Maximum Frame-Average Light Level : 136 cd/m2

  30. Audio
  31. ID : 2
  32. Format : E-AC-3
  33. Format/Info : Enhanced AC-3
  34. Commercial name : Dolby Digital Plus
  35. Codec ID : A_EAC3
  36. Duration : 1 h 56 min
  37. Bit rate mode : Constant
  38. Bit rate : 640 kb/s
  39. Channel(s) : 6 channels
  40. Channel layout : L R C LFE Ls Rs
  41. Sampling rate : 48.0 kHz
  42. Frame rate : 31.250 FPS (1536 SPF)
  43. Compression mode : Lossy
  44. Stream size : 532 MiB (4%)
  45. Title : English
  46. Language : English
  47. Service kind : Complete Main
  48. Default : No
  49. Forced : No

  50. Text #1
  51. ID : 3
  52. Format : UTF-8
  53. Codec ID : S_TEXT/UTF8
  54. Codec ID/Info : UTF-8 Plain Text
  55. Duration : 1 h 55 min
  56. Bit rate : 77 b/s
  57. Count of elements : 1298
  58. Stream size : 65.7 KiB (0%)
  59. Title : Arabic
  60. Language : Arabic
  61. Default : No
  62. Forced : No

  63. Text #2
  64. ID : 4
  65. Format : UTF-8
  66. Codec ID : S_TEXT/UTF8
  67. Codec ID/Info : UTF-8 Plain Text
  68. Duration : 1 h 54 min
  69. Bit rate : 45 b/s
  70. Count of elements : 1281
  71. Stream size : 38.5 KiB (0%)
  72. Title : Danish
  73. Language : Danish
  74. Default : No
  75. Forced : No

  76. Text #3
  77. ID : 5
  78. Format : UTF-8
  79. Codec ID : S_TEXT/UTF8
  80. Codec ID/Info : UTF-8 Plain Text
  81. Duration : 1 h 54 min
  82. Bit rate : 50 b/s
  83. Count of elements : 1286
  84. Stream size : 42.6 KiB (0%)
  85. Title : German
  86. Language : German
  87. Default : No
  88. Forced : No

  89. Text #4
  90. ID : 6
  91. Format : UTF-8
  92. Codec ID : S_TEXT/UTF8
  93. Codec ID/Info : UTF-8 Plain Text
  94. Duration : 1 h 55 min
  95. Bit rate : 70 b/s
  96. Count of elements : 2058
  97. Stream size : 59.4 KiB (0%)
  98. Title : English [SDH]
  99. Language : English
  100. Default : No
  101. Forced : No

  102. Text #5
  103. ID : 7
  104. Format : UTF-8
  105. Codec ID : S_TEXT/UTF8
  106. Codec ID/Info : UTF-8 Plain Text
  107. Duration : 1 h 50 min
  108. Bit rate : 57 b/s
  109. Count of elements : 1652
  110. Stream size : 46.6 KiB (0%)
  111. Title : English
  112. Language : English
  113. Default : No
  114. Forced : No


  115. Text #29
  116. ID : 31
  117. Format : UTF-8
  118. Codec ID : S_TEXT/UTF8
  119. Codec ID/Info : UTF-8 Plain Text
  120. Duration : 1 h 55 min
  121. Bit rate : 45 b/s
  122. Count of elements : 1300
  123. Stream size : 38.4 KiB (0%)
  124. Title : Chinese (Simplified)
  125. Language : Chinese
  126. Default : No
  127. Forced : No

  128. Text #30
  129. ID : 32
  130. Format : UTF-8
  131. Codec ID : S_TEXT/UTF8
  132. Codec ID/Info : UTF-8 Plain Text
  133. Duration : 1 h 55 min
  134. Bit rate : 46 b/s
  135. Count of elements : 1300
  136. Stream size : 39.0 KiB (0%)
  137. Title : Chinese (Traditional)
  138. Language : Chinese
  139. Default : No
  140. Forced : No
复制代码

西尔维 / Sylvie/西尔维的爱情4K.Sylvies.Love.2020.2160p.AMZN.WEB-DL.x265.10bit.HDR10plus.DDP5.1-4K电影下载

西尔维的爱情4K.Sylvies.Love.2020.2160p.AMZN.WEB-DL.x265.10bit.HDR10plus.DDP5.1-简繁中字【4K HDR 12.60 GB】
[Hao4K]西尔维的爱情4k.Sylvies.Love.2020.2160p.AMZN.WEB-DL.x265.10bit.HDR10plus.D.torrent (63.57 KB, 售价: 2 K币)
回复

使用道具 举报

全部回复17

sww287 发表于 2021-1-31 07:48:41

sww287 沙发

2021-1-31 07:48:41

谢谢分享
回复 支持 反对

使用道具 举报

xia6909 发表于 2021-1-31 07:54:29

xia6909 板凳

2021-1-31 07:54:29

谢谢分享
回复 支持 反对

使用道具 举报

chuchan1 发表于 2021-1-31 09:40:55

chuchan1 地板

2021-1-31 09:40:55


谢谢分享
回复 支持 反对

使用道具 举报

bonna 发表于 2021-1-31 15:11:30

bonna 5#

2021-1-31 15:11:30

有片必支持。
回复 支持 反对

使用道具 举报

ahswhx 发表于 2021-1-31 17:48:12

ahswhx 6#

2021-1-31 17:48:12

谢谢 分享
回复 支持 反对

使用道具 举报

PZJPHR 发表于 2021-1-31 18:00:15

PZJPHR 7#

2021-1-31 18:00:15

谢谢分享
回复 支持 反对

使用道具 举报

dk30129 发表于 2021-1-31 19:06:07

dk30129 8#

2021-1-31 19:06:07

谢谢分享,顶你!!!!
回复 支持 反对

使用道具 举报

yale 发表于 2021-1-31 22:39:13

yale 9#

2021-1-31 22:39:13

谢谢分享
回复 支持 反对

使用道具 举报

panbell 发表于 2021-2-1 09:47:47

panbell 10#

2021-2-1 09:47:47

感谢感谢,辛苦了。
回复 支持 反对

使用道具 举报

ww6 发表于 2021-2-1 10:39:07

ww6 11#

2021-2-1 10:39:07

谢谢分享
回复 支持 反对

使用道具 举报

ywf6168 发表于 2021-2-1 12:30:36

ywf6168 12#

2021-2-1 12:30:36

感谢感谢,辛苦了
回复 支持 反对

使用道具 举报

lzx6537227 发表于 2021-2-1 14:19:38

lzx6537227 13#

2021-2-1 14:19:38

谢谢分享啊
回复 支持 反对

使用道具 举报

lch1164840694 发表于 2021-2-3 09:19:06

lch1164840694 14#

2021-2-3 09:19:06

感谢楼主
回复 支持 反对

使用道具 举报

下半场的欢乐 发表于 2021-2-3 22:25:29 Hao4K手机版

下半场的欢乐 15#

2021-2-3 22:25:29

谢谢分享
回复 支持 反对

使用道具 举报

chuchan1 发表于 2021-2-5 13:30:27

chuchan1 16#

2021-2-5 13:30:27



好资源,谢谢分享!
回复 支持 反对

使用道具 举报

andywjhh 发表于 2021-2-16 22:56:50

andywjhh 17#

2021-2-16 22:56:50

辛苦了  感谢分享啊
回复 支持 反对

使用道具 举报

ltzyhuang 发表于 2021-2-19 15:35:38

ltzyhuang 18#

2021-2-19 15:35:38

感谢楼主的资源
回复 支持 反对

使用道具 举报

   发表回复

您需要登录后才可以回帖 登录 | 立即注册

返回列表 本版积分规则

  • 在线客服

  • 返回顶部