微博 微信

Hao4K影音

电影频道
电影封面:
片  名: 丹尼尔·索萨:没教养4K
电影分类: 喜剧 
国  家: 美国 
年  代: 2019年
分 辨 率: 4K(3840x2160)
电影格式: MKV|REMUX 
画质标准: SDR 
音质编码: Dolby Digital Plus Audio 
电影声道: 5.1声道 
帧数/FPS: 23.976 FPS
电影语言: 中文简体 中文繁体 英文原版 
资源大小: 4.81 GB
导  演: Alex Díaz / Marcos Bucay
豆瓣评分: 6.8 分
中文字幕: -
剧情简介: 丹尼爾·索薩在第二部脫口秀特輯中回憶童年、思索墨西哥傳統,並指出《可可夜總會》的一大問題
丹尼尔·索萨:没教养4K.Daniel.Sosa.Maleducado.2019.SPANISH.2160p.NF.WEB-DL.x265.10bit.SDR.DDP5.1-4k电影信息
  1. Video
  2. ID : 1
  3. Format : HEVC
  4. Format/Info : High Efficiency Video Coding
  5. Format profile : Main 10@L5@Main
  6. Codec ID : V_MPEGH/ISO/HEVC
  7. Duration : 54 min 50 s
  8. Bit rate : 11.9 Mb/s
  9. Width : 3 840 pixels
  10. Height : 2 160 pixels
  11. Display aspect ratio : 16:9
  12. Frame rate mode : Constant
  13. Frame rate : 23.976 (24000/1001) FPS
  14. Color space : YUV
  15. Chroma subsampling : 4:2:0
  16. Bit depth : 10 bits
  17. Bits/(Pixel*Frame) : 0.060
  18. Stream size : 4.56 GiB (95%)
  19. Default : Yes
  20. Forced : No
  21. Color range : Limited
  22. Color primaries : BT.709
  23. Transfer characteristics : BT.709
  24. Matrix coefficients : BT.709

  25. Audio
  26. ID : 2
  27. Format : E-AC-3
  28. Format/Info : Enhanced AC-3
  29. Commercial name : Dolby Digital Plus
  30. Codec ID : A_EAC3
  31. Duration : 54 min 50 s
  32. Bit rate mode : Constant
  33. Bit rate : 640 kb/s
  34. Channel(s) : 6 channels
  35. Channel layout : L R C LFE Ls Rs
  36. Sampling rate : 48.0 kHz
  37. Frame rate : 31.250 FPS (1536 SPF)
  38. Compression mode : Lossy
  39. Stream size : 251 MiB (5%)
  40. Title : DDP 5.1
  41. Language : Spanish
  42. Service kind : Complete Main
  43. Default : Yes
  44. Forced : No

  45. Text #1
  46. ID : 3
  47. Format : UTF-8
  48. Codec ID : S_TEXT/UTF8
  49. Codec ID/Info : UTF-8 Plain Text
  50. Duration : 53 min 0 s
  51. Bit rate : 89 b/s
  52. Count of elements : 781
  53. Stream size : 34.9 KiB (0%)
  54. Language : English
  55. Default : Yes
  56. Forced : Yes

  57. Text #2
  58. ID : 4
  59. Format : UTF-8
  60. Codec ID : S_TEXT/UTF8
  61. Codec ID/Info : UTF-8 Plain Text
  62. Duration : 54 min 37 s
  63. Bit rate : 82 b/s
  64. Count of elements : 764
  65. Stream size : 33.0 KiB (0%)
  66. Language : Czech
  67. Default : No
  68. Forced : No

  69. Text #3
  70. ID : 5
  71. Format : UTF-8
  72. Codec ID : S_TEXT/UTF8
  73. Codec ID/Info : UTF-8 Plain Text
  74. Duration : 54 min 37 s
  75. Bit rate : 88 b/s
  76. Count of elements : 789
  77. Stream size : 35.5 KiB (0%)
  78. Language : Danish
  79. Default : No
  80. Forced : No

  81. Text #4
  82. ID : 6
  83. Format : UTF-8
  84. Codec ID : S_TEXT/UTF8
  85. Codec ID/Info : UTF-8 Plain Text
  86. Duration : 54 min 37 s
  87. Bit rate : 140 b/s
  88. Count of elements : 789
  89. Stream size : 56.1 KiB (0%)
  90. Language : Arabic
  91. Default : No
  92. Forced : No

  93. Text #19
  94. ID : 21
  95. Format : UTF-8
  96. Codec ID : S_TEXT/UTF8
  97. Codec ID/Info : UTF-8 Plain Text
  98. Duration : 54 min 37 s
  99. Bit rate : 89 b/s
  100. Count of elements : 789
  101. Stream size : 35.7 KiB (0%)
  102. Title : Simplified
  103. Language : Chinese
  104. Default : No
  105. Forced : No

  106. Text #20
  107. ID : 22
  108. Format : UTF-8
  109. Codec ID : S_TEXT/UTF8
  110. Codec ID/Info : UTF-8 Plain Text
  111. Duration : 54 min 37 s
  112. Bit rate : 75 b/s
  113. Count of elements : 789
  114. Stream size : 30.1 KiB (0%)
  115. Title : Traditional
  116. Language : Chinese
  117. Default : No
  118. Forced : No
复制代码

丹尼尔·索萨:没教养4K.Daniel.Sosa.Maleducado.2019.SPANISH.2160p.NF.WEB-DL.x265.10bit.SDR.DDP5.1-4K电影下载

丹尼尔·索萨:没教养4K.Daniel.Sosa.Maleducado.2019.SPANISH.2160p.NF.WEB-DL.x265.10bit.SDR.DDP5.1简繁中字【4K SDR 4.81 GB】
[Hao4K]丹尼尔·索萨:没教养4K.Daniel.Sosa.Maleducado.2019.SPANISH.2160p.NF.WEB-D.torrent (48.71 KB)
回复

使用道具 举报

全部回复11

咆哮的麦霸 发表于 2021-2-1 09:08:45

咆哮的麦霸 沙发

2021-2-1 09:08:45

蟹蟹诶
回复 支持 反对

使用道具 举报

panbell 发表于 2021-2-1 09:49:14

panbell 板凳

2021-2-1 09:49:14

感谢感谢,辛苦了。
回复 支持 反对

使用道具 举报

ww6 发表于 2021-2-1 10:38:17

ww6 地板

2021-2-1 10:38:17

谢谢分享
回复 支持 反对

使用道具 举报

yale 发表于 2021-2-1 22:53:50

yale 5#

2021-2-1 22:53:50

谢谢分享
回复 支持 反对

使用道具 举报

lch1164840694 发表于 2021-2-3 09:16:20

lch1164840694 6#

2021-2-3 09:16:20

感谢楼主
回复 支持 反对

使用道具 举报

panbell 发表于 2021-2-3 10:01:21

panbell 7#

2021-2-3 10:01:21

谢谢分享,学习了
回复 支持 反对

使用道具 举报

jotiger 发表于 2021-2-3 19:46:59

jotiger 8#

2021-2-3 19:46:59

喜欢脱口秀,支持楼主
回复 支持 反对

使用道具 举报

brockf5 发表于 2021-2-14 20:21:56

brockf5 9#

2021-2-14 20:21:56

非常经典的电影 感谢分享
回复 支持 反对

使用道具 举报

brockf5 发表于 2021-2-14 20:24:55

brockf5 10#

2021-2-14 20:24:55

非常经典的电影 感谢分享
回复 支持 反对

使用道具 举报

panbell 发表于 2021-2-15 10:40:51

panbell 11#

2021-2-15 10:40:51

好资源,谢谢分享!
回复 支持 反对

使用道具 举报

baofulan1 发表于 2021-2-17 11:13:42

baofulan1 12#

2021-2-17 11:13:42

感谢楼主
回复 支持 反对

使用道具 举报

   发表回复

您需要登录后才可以回帖 登录 | 立即注册

返回列表 本版积分规则

  • 在线客服

  • 返回顶部