微博 微信

Hao4K影音

电影频道
电影封面:
片  名: Liss Pereira:持有液体4K
电影分类: 喜剧 其他 
国  家: 其他 
年  代: 2019年
分 辨 率: 4K(3840x2160)
电影格式: MKV|REMUX 
画质标准: SDR 
音质编码: Dolby Digital Plus Audio 
电影声道: 5.1声道 
帧数/FPS: 23.976 FPS
电影语言: 中文繁体 英文原版 
资源大小: 5.21 GB
导  演: Liss Pereira
豆瓣评分: 6.6 分
中文字幕: -
剧情简介: Stand up comedy from the Colombian Liss Pereira, about the truths of sex, love, attraction and lies of modern relationships.
Liss Pereira:持有液体4K.Liss.Pereira.Reteniendo.liquidos.2019.SPANISH.2160p.NF.WEB-DL.x265.10bit.SDR.DDP5.1-4k电影信息
  1. Video
  2. ID : 1
  3. Format : HEVC
  4. Format/Info : High Efficiency Video Coding
  5. Format profile : Main 10@L5@Main
  6. Codec ID : V_MPEGH/ISO/HEVC
  7. Duration : 59 min 8 s
  8. Bit rate : 12.0 Mb/s
  9. Width : 3 840 pixels
  10. Height : 2 160 pixels
  11. Display aspect ratio : 16:9
  12. Frame rate mode : Constant
  13. Frame rate : 23.976 (24000/1001) FPS
  14. Color space : YUV
  15. Chroma subsampling : 4:2:0
  16. Bit depth : 10 bits
  17. Bits/(Pixel*Frame) : 0.060
  18. Stream size : 4.94 GiB (95%)
  19. Default : Yes
  20. Forced : No
  21. Color range : Limited
  22. Color primaries : BT.709
  23. Transfer characteristics : BT.709
  24. Matrix coefficients : BT.709

  25. Audio
  26. ID : 2
  27. Format : E-AC-3
  28. Format/Info : Enhanced AC-3
  29. Commercial name : Dolby Digital Plus
  30. Codec ID : A_EAC3
  31. Duration : 59 min 8 s
  32. Bit rate mode : Constant
  33. Bit rate : 640 kb/s
  34. Channel(s) : 6 channels
  35. Channel layout : L R C LFE Ls Rs
  36. Sampling rate : 48.0 kHz
  37. Frame rate : 31.250 FPS (1536 SPF)
  38. Compression mode : Lossy
  39. Stream size : 271 MiB (5%)
  40. Title : DDP 5.1
  41. Language : Spanish
  42. Service kind : Complete Main
  43. Default : Yes
  44. Forced : No

  45. Text #1
  46. ID : 3
  47. Format : UTF-8
  48. Codec ID : S_TEXT/UTF8
  49. Codec ID/Info : UTF-8 Plain Text
  50. Duration : 57 min 54 s
  51. Bit rate : 79 b/s
  52. Count of elements : 893
  53. Stream size : 33.7 KiB (0%)
  54. Language : English
  55. Default : Yes
  56. Forced : Yes

  57. Text #2
  58. ID : 4
  59. Format : UTF-8
  60. Codec ID : S_TEXT/UTF8
  61. Codec ID/Info : UTF-8 Plain Text
  62. Duration : 58 min 6 s
  63. Bit rate : 71 b/s
  64. Count of elements : 866
  65. Stream size : 30.5 KiB (0%)
  66. Language : Czech
  67. Default : No
  68. Forced : No

  69. Text #3
  70. ID : 5
  71. Format : UTF-8
  72. Codec ID : S_TEXT/UTF8
  73. Codec ID/Info : UTF-8 Plain Text
  74. Duration : 58 min 49 s
  75. Bit rate : 79 b/s
  76. Count of elements : 908
  77. Stream size : 34.1 KiB (0%)
  78. Language : Danish
  79. Default : No
  80. Forced : No

  81. Text #16
  82. ID : 18
  83. Format : UTF-8
  84. Codec ID : S_TEXT/UTF8
  85. Codec ID/Info : UTF-8 Plain Text
  86. Duration : 58 min 49 s
  87. Bit rate : 82 b/s
  88. Count of elements : 908
  89. Stream size : 35.4 KiB (0%)
  90. Title : Simplified
  91. Language : Chinese
  92. Default : No
  93. Forced : No

  94. Text #17
  95. ID : 19
  96. Format : UTF-8
  97. Codec ID : S_TEXT/UTF8
  98. Codec ID/Info : UTF-8 Plain Text
  99. Duration : 58 min 49 s
  100. Bit rate : 78 b/s
  101. Count of elements : 907
  102. Stream size : 34.0 KiB (0%)
  103. Title : Traditional
  104. Language : Chinese
  105. Default : No
  106. Forced : No
复制代码
Liss Pereira:持有液体4K.Liss.Pereira.Reteniendo.liquidos.2019.SPANISH.2160p.NF.WEB-DL.x265.10bit.SDR.DDP5.1-4K电影下载

Liss Pereira:持有液体4K.Liss.Pereira.Reteniendo.liquidos.2019.SPANISH.2160p.NF.WEB-DL.x265.10bit.SDR.DDP5.1-繁体中字【4K SDR 5.21 GB】
[Hao4K]Liss Pereira:持有液体4K.Liss.Pereira.Reteniendo.liquidos.2019.SPANISH.21.torrent (26.64 KB)
回复

使用道具 举报

全部回复15

panbell 发表于 2021-2-1 09:53:51

panbell 沙发

2021-2-1 09:53:51

感谢感谢,辛苦了。
回复 支持 反对

使用道具 举报

月光麦田 发表于 2021-2-1 10:30:06

月光麦田 板凳

2021-2-1 10:30:06

过年就是喜剧了
回复 支持 反对

使用道具 举报

ww6 发表于 2021-2-1 10:37:31

ww6 地板

2021-2-1 10:37:31

谢谢分享
回复 支持 反对

使用道具 举报

wwosil 发表于 2021-2-1 15:35:37

wwosil 5#

2021-2-1 15:35:37

这是何物啊
回复 支持 反对

使用道具 举报

yale 发表于 2021-2-1 22:53:19

yale 6#

2021-2-1 22:53:19

谢谢分享
回复 支持 反对

使用道具 举报

ek5132468 发表于 2021-2-2 13:36:32

ek5132468 7#

2021-2-2 13:36:32

谢谢分享楼主辛苦
回复 支持 反对

使用道具 举报

qzhjx 发表于 2021-2-2 16:52:56

qzhjx 8#

2021-2-2 16:52:56

什么液体
回复 支持 反对

使用道具 举报

lch1164840694 发表于 2021-2-3 09:15:54

lch1164840694 9#

2021-2-3 09:15:54

感谢楼主
回复 支持 反对

使用道具 举报

czx28867890 发表于 2021-2-3 17:28:41

czx28867890 10#

2021-2-3 17:28:41

感谢楼主分享好资源
回复 支持 反对

使用道具 举报

月光麦田 发表于 2021-2-3 19:14:41

月光麦田 11#

2021-2-3 19:14:41

外国的喜剧看不懂
回复 支持 反对

使用道具 举报

2019hk2125 发表于 2021-2-5 09:32:26

2019hk2125 12#

2021-2-5 09:32:26

不知道是什么意思!
回复 支持 反对

使用道具 举报

chuchan1 发表于 2021-2-5 13:31:35

chuchan1 13#

2021-2-5 13:31:35



好资源,谢谢分享!
回复 支持 反对

使用道具 举报

brockf5 发表于 2021-2-14 20:46:03

brockf5 14#

2021-2-14 20:46:03

非常经典的电影 感谢分享
回复 支持 反对

使用道具 举报

brockf5 发表于 2021-2-14 20:56:26

brockf5 15#

2021-2-14 20:56:26

非常经典的电影 感谢分享
回复 支持 反对

使用道具 举报

andywjhh 发表于 2021-2-16 22:54:18

andywjhh 16#

2021-2-16 22:54:18

辛苦了  感谢分享啊
回复 支持 反对

使用道具 举报

   发表回复

您需要登录后才可以回帖 登录 | 立即注册

返回列表 本版积分规则

  • 在线客服

  • 返回顶部