微博 微信

Hao4K影音

电影频道
电影封面:
片  名: 旧案重提:迈阿密巡回乐队大屠杀4K
电影分类: 纪录片 
国  家: 美国 
年  代: 2019年
分 辨 率: 4K(3840x2160)
电影格式: MKV|REMUX 
画质标准: SDR 
音质编码: Dolby Digital Plus Audio 
电影声道: 5.1声道 
帧数/FPS: 23.976 FPS
电影语言: 中文简体 中文繁体 英文原版 
资源大小: 6.19 GB
导  演: 图尔特·森德尔
豆瓣评分: 7.0 分
中文字幕: -
剧情简介: 迈阿密巡回乐队三名成员惨遭谋杀,此案在1975 年让整个爱尔兰为之震惊。现在一名幸存者坚持要找出真相。
迈阿密巡回乐队谋杀案/旧案重提:迈阿密巡回乐队大屠杀4K.ReMastered.The.Miami.Showband.Massacre.2019.2160p.NF.WEB-DL.x265.10bit.SDR.DDP5.1-4k电影信息
  1. Video
  2. ID : 1
  3. Format : HEVC
  4. Format/Info : High Efficiency Video Coding
  5. Format profile : Main 10@L5@Main
  6. Codec ID : V_MPEGH/ISO/HEVC
  7. Duration : 1 h 10 min
  8. Bit rate : 11.8 Mb/s
  9. Width : 3 840 pixels
  10. Height : 2 160 pixels
  11. Display aspect ratio : 16:9
  12. Frame rate mode : Constant
  13. Frame rate : 23.976 (24000/1001) FPS
  14. Color space : YUV
  15. Chroma subsampling : 4:2:0
  16. Bit depth : 10 bits
  17. Bits/(Pixel*Frame) : 0.059
  18. Stream size : 5.86 GiB (95%)
  19. Default : Yes
  20. Forced : No
  21. Color range : Limited
  22. Color primaries : BT.709
  23. Transfer characteristics : BT.709
  24. Matrix coefficients : BT.709

  25. Audio
  26. ID : 2
  27. Format : E-AC-3
  28. Format/Info : Enhanced AC-3
  29. Commercial name : Dolby Digital Plus
  30. Codec ID : A_EAC3
  31. Duration : 1 h 10 min
  32. Bit rate mode : Constant
  33. Bit rate : 640 kb/s
  34. Channel(s) : 6 channels
  35. Channel layout : L R C LFE Ls Rs
  36. Sampling rate : 48.0 kHz
  37. Frame rate : 31.250 FPS (1536 SPF)
  38. Compression mode : Lossy
  39. Stream size : 325 MiB (5%)
  40. Title : DDP 5.1
  41. Language : English
  42. Service kind : Complete Main
  43. Default : Yes
  44. Forced : No

  45. Text #1
  46. ID : 3
  47. Format : UTF-8
  48. Codec ID : S_TEXT/UTF8
  49. Codec ID/Info : UTF-8 Plain Text
  50. Duration : 13 s 597 ms
  51. Bit rate : 111 b/s
  52. Count of elements : 3
  53. Stream size : 189 Bytes (0%)
  54. Title : FORCED
  55. Language : English
  56. Default : Yes
  57. Forced : Yes

  58. Text #2
  59. ID : 4
  60. Format : UTF-8
  61. Codec ID : S_TEXT/UTF8
  62. Codec ID/Info : UTF-8 Plain Text
  63. Duration : 1 h 9 min
  64. Bit rate : 96 b/s
  65. Count of elements : 1126
  66. Stream size : 48.8 KiB (0%)
  67. Title : SDH
  68. Language : English
  69. Default : No
  70. Forced : No

  71. Text #21
  72. ID : 23
  73. Format : UTF-8
  74. Codec ID : S_TEXT/UTF8
  75. Codec ID/Info : UTF-8 Plain Text
  76. Duration : 1 h 10 min
  77. Bit rate : 84 b/s
  78. Count of elements : 1111
  79. Stream size : 43.7 KiB (0%)
  80. Title : Simplified
  81. Language : Chinese
  82. Default : No
  83. Forced : No

  84. Text #22
  85. ID : 24
  86. Format : UTF-8
  87. Codec ID : S_TEXT/UTF8
  88. Codec ID/Info : UTF-8 Plain Text
  89. Duration : 1 h 10 min
  90. Bit rate : 82 b/s
  91. Count of elements : 1088
  92. Stream size : 42.6 KiB (0%)
  93. Title : Traditional
  94. Language : Chinese
  95. Default : No
  96. Forced : No
复制代码


迈阿密巡回乐队谋杀案/旧案重提:迈阿密巡回乐队大屠杀4K.ReMastered.The.Miami.Showband.Massacre.2019.2160p.NF.WEB-DL.x265.10bit.SDR.DDP5.1-4K电影下载

旧案重提:迈阿密巡回乐队大屠杀4K.ReMastered.The.Miami.Showband.Massacre.2019.2160p.NF.WEB-DL.x265.10bit.SDR.DDP5.1-简繁中字【4K SDR  6.19 GB】
[Hao4K]旧案重提:迈阿密巡回乐队大屠杀4K.ReMastered.The.Miami.Showband.Massacre.2.torrent (31.53 KB)
回复

使用道具 举报

全部回复25

dk30129 发表于 2021-2-1 08:20:00

dk30129 沙发

2021-2-1 08:20:00

谢谢分享,顶你!!!
回复 支持 反对

使用道具 举报

Makoto8023 发表于 2021-2-1 08:34:11

Makoto8023 板凳

2021-2-1 08:34:11

谢谢分享
回复 支持 反对

使用道具 举报

panbell 发表于 2021-2-1 09:46:34

panbell 地板

2021-2-1 09:46:34

感谢感谢,辛苦了。
回复 支持 反对

使用道具 举报

cc158602358 发表于 2021-2-1 09:48:32

cc158602358 5#

2021-2-1 09:48:32

感谢感谢,辛苦了。
回复 支持 反对

使用道具 举报

bonna 发表于 2021-2-1 10:13:12

bonna 6#

2021-2-1 10:13:12

最爱纪录片。
回复 支持 反对

使用道具 举报

月光麦田 发表于 2021-2-1 10:29:42

月光麦田 7#

2021-2-1 10:29:42

希望是一部不错的电影
回复 支持 反对

使用道具 举报

ww6 发表于 2021-2-1 10:36:29

ww6 8#

2021-2-1 10:36:29

谢谢分享
回复 支持 反对

使用道具 举报

ywf6168 发表于 2021-2-1 12:09:53

ywf6168 9#

2021-2-1 12:09:53

谢谢分享,辛苦了
回复 支持 反对

使用道具 举报

blucewee1984 发表于 2021-2-1 20:42:37

blucewee1984 10#

2021-2-1 20:42:37

手动顶 牛逼
回复 支持 反对

使用道具 举报

yale 发表于 2021-2-1 22:52:57

yale 11#

2021-2-1 22:52:57

谢谢分享
回复 支持 反对

使用道具 举报

流浪的沙砾 发表于 2021-2-1 23:13:10 Hao4K手机版

流浪的沙砾 12#

2021-2-1 23:13:10

很谢谢,牛逼
回复 支持 反对

使用道具 举报

kennethlin168 发表于 2021-2-2 11:23:00

kennethlin168 13#

2021-2-2 11:23:00


谢谢分享
回复 支持 反对

使用道具 举报

ek5132468 发表于 2021-2-2 13:36:10

ek5132468 14#

2021-2-2 13:36:10

谢谢分享楼主辛苦
回复 支持 反对

使用道具 举报

cb917918 发表于 2021-2-3 07:17:26

cb917918 15#

2021-2-3 07:17:26

谢谢分享,顶你!!
回复 支持 反对

使用道具 举报

lch1164840694 发表于 2021-2-3 09:15:34

lch1164840694 16#

2021-2-3 09:15:34

感谢楼主
回复 支持 反对

使用道具 举报

wangzh20081 发表于 2021-2-3 18:42:58

wangzh20081 17#

2021-2-3 18:42:58

感谢楼主无私地 分享
回复 支持 反对

使用道具 举报

LENNY9527 发表于 2021-2-4 01:49:37

LENNY9527 18#

2021-2-4 01:49:37

感谢分享
回复 支持 反对

使用道具 举报

   发表回复

您需要登录后才可以回帖 登录 | 立即注册

返回列表 本版积分规则

  • 在线客服

  • 返回顶部