微博 微信

Hao4K影音

电影频道
电影封面:
片  名: 观鸟者4K
电影分类: 纪录片 
国  家: 美国 
年  代: 2019年
分 辨 率: 4K(3840x2160)
电影格式: MKV|REMUX 
画质标准: SDR 
音质编码: Dolby Digital Plus Audio 
电影声道: 5.1声道 
帧数/FPS: 23.976 FPS
电影语言: 中文简体 中文繁体 英文原版 
资源大小: 3.28 GB
导  演: Otilia Portillo Padua
豆瓣评分: 6.4 分
中文字幕: -
剧情简介: 每年,有许多不同种类的候鸟飞行数千英里往返穿越美墨边境,它们并不在意人类制造的各种法律和障碍。两国边境上虔诚的观鸟者,以及所有政治派别的人,对这些生灵和它们的险阻之旅怀有同样的强烈情感。纪录短片《观鸟者》由奥蒂利娅·波蒂略·帕杜亚(《Diario a Tres Voces》)执导。该片赞扬了那些观察、记录、监控并为这些物种的权利和栖息地而战的人们,从另一个角度展示了迁徙这一生存手段。
候鸟守护者(台) / 观鸟无国界(港)/观鸟者4K.Birders.2019.SPANISH.2160p.NF.WEB-DL.x265.10bit.SDR.DDP5.1-4k电影信息
  1. Video
  2. ID : 1
  3. Format : HEVC
  4. Format/Info : High Efficiency Video Coding
  5. Format profile : Main 10@L5@Main
  6. Codec ID : V_MPEGH/ISO/HEVC
  7. Duration : 37 min 46 s
  8. Bit rate : 11.8 Mb/s
  9. Width : 3 840 pixels
  10. Height : 2 160 pixels
  11. Display aspect ratio : 16:9
  12. Frame rate mode : Constant
  13. Frame rate : 23.976 (24000/1001) FPS
  14. Color space : YUV
  15. Chroma subsampling : 4:2:0
  16. Bit depth : 10 bits
  17. Bits/(Pixel*Frame) : 0.059
  18. Stream size : 3.11 GiB (95%)
  19. Language : Spanish
  20. Default : Yes
  21. Forced : No
  22. Color range : Limited
  23. Color primaries : BT.709
  24. Transfer characteristics : BT.709
  25. Matrix coefficients : BT.709

  26. Audio
  27. ID : 2
  28. Format : E-AC-3
  29. Format/Info : Enhanced AC-3
  30. Commercial name : Dolby Digital Plus
  31. Codec ID : A_EAC3
  32. Duration : 37 min 46 s
  33. Bit rate mode : Constant
  34. Bit rate : 640 kb/s
  35. Channel(s) : 6 channels
  36. Channel layout : L R C LFE Ls Rs
  37. Sampling rate : 48.0 kHz
  38. Frame rate : 31.250 FPS (1536 SPF)
  39. Compression mode : Lossy
  40. Stream size : 173 MiB (5%)
  41. Language : Spanish
  42. Service kind : Complete Main
  43. Default : Yes
  44. Forced : No

  45. Text #1
  46. ID : 3
  47. Format : UTF-8
  48. Codec ID : S_TEXT/UTF8
  49. Codec ID/Info : UTF-8 Plain Text
  50. Duration : 27 min 32 s
  51. Bit rate : 30 b/s
  52. Count of elements : 184
  53. Stream size : 6.22 KiB (0%)
  54. Language : English
  55. Default : Yes
  56. Forced : No

  57. Text #2
  58. ID : 4
  59. Format : UTF-8
  60. Codec ID : S_TEXT/UTF8
  61. Codec ID/Info : UTF-8 Plain Text
  62. Duration : 36 min 7 s
  63. Bit rate : 75 b/s
  64. Count of elements : 491
  65. Stream size : 19.9 KiB (0%)
  66. Title : SDH
  67. Language : English
  68. Default : No
  69. Forced : No

  70. Text #23
  71. ID : 25
  72. Format : UTF-8
  73. Codec ID : S_TEXT/UTF8
  74. Codec ID/Info : UTF-8 Plain Text
  75. Duration : 34 min 35 s
  76. Bit rate : 64 b/s
  77. Count of elements : 433
  78. Stream size : 16.4 KiB (0%)
  79. Title : Simplified
  80. Language : Chinese
  81. Default : No
  82. Forced : No

  83. Text #24
  84. ID : 26
  85. Format : UTF-8
  86. Codec ID : S_TEXT/UTF8
  87. Codec ID/Info : UTF-8 Plain Text
  88. Duration : 34 min 35 s
  89. Bit rate : 58 b/s
  90. Count of elements : 461
  91. Stream size : 14.9 KiB (0%)
  92. Title : Traditional
  93. Language : Chinese
  94. Default : No
  95. Forced : No
复制代码

候鸟守护者(台) / 观鸟无国界(港)/观鸟者4K.Birders.2019.SPANISH.2160p.NF.WEB-DL.x265.10bit.SDR.DDP5.1-4K纪录片短片电影下载
观鸟者4K.Birders.2019.SPANISH.2160p.NF.WEB-DL.x265.10bit.SDR.DDP5.1-简繁中字【4K SDR 3.28 GB】
[Hao4K]观鸟者4K.Birders.2019.SPANISH.2160p.NF.WEB-DL.x265.10bit.SDR.DDP5.1-SWTYBLZ.torrent (33.33 KB, 售价: 2 K币)
回复

使用道具 举报

全部回复59

lqy0500 发表于 2021-2-1 13:10:56

lqy0500 沙发

2021-2-1 13:10:56


感谢分享
回复 支持 反对

使用道具 举报

罗洋 发表于 2021-2-1 14:42:37

罗洋 板凳

2021-2-1 14:42:37

自然记录片要顶,感谢分享!
回复 支持 反对

使用道具 举报

lakaby 发表于 2021-2-1 14:43:38

lakaby 地板

2021-2-1 14:43:38

感谢分享!
回复 支持 反对

使用道具 举报

wutao2006 发表于 2021-2-1 14:47:12

wutao2006 5#

2021-2-1 14:47:12

感谢分享纪录片
回复 支持 反对

使用道具 举报

329748554 发表于 2021-2-1 14:49:54

329748554 6#

2021-2-1 14:49:54

自然记录片,感谢分享!
回复 支持 反对

使用道具 举报

李尚晚来 发表于 2021-2-1 16:08:15

李尚晚来 7#

2021-2-1 16:08:15

夺标sf
回复 支持 反对

使用道具 举报

李尚晚来 发表于 2021-2-1 16:08:50

李尚晚来 8#

2021-2-1 16:08:50

为什么扣了K币,下载页面打不开
回复 支持 反对

使用道具 举报

laoliang333 发表于 2021-2-1 16:22:07

laoliang333 9#

2021-2-1 16:22:07

自然界摄影纪录片,喜欢收藏,谢谢分享
回复 支持 反对

使用道具 举报

蒋蒋 发表于 2021-2-1 17:24:13 Hao4K手机版

蒋蒋 10#

2021-2-1 17:24:13

不知道好不好
回复 支持 反对

使用道具 举报

月光麦田 发表于 2021-2-1 17:27:41

月光麦田 11#

2021-2-1 17:27:41

爱护我们的大自然
回复 支持 反对

使用道具 举报

TNTJQMD 发表于 2021-2-1 19:06:54

TNTJQMD 12#

2021-2-1 19:06:54

我也经常打鸟,这个要支持!
回复 支持 反对

使用道具 举报

langwind 发表于 2021-2-1 19:41:49

langwind 13#

2021-2-1 19:41:49

这个比较好看,4K看鸟。非常值得下载支持。
回复 支持 反对

使用道具 举报

yale 发表于 2021-2-1 22:52:15

yale 14#

2021-2-1 22:52:15

谢谢分享
回复 支持 反对

使用道具 举报

powerc 发表于 2021-2-2 01:22:02

powerc 15#

2021-2-2 01:22:02

谢谢分享纪录片
回复 支持 反对

使用道具 举报

dyczw 发表于 2021-2-2 06:41:03

dyczw 16#

2021-2-2 06:41:03

感谢分享,辛苦了
回复 支持 反对

使用道具 举报

Makoto8023 发表于 2021-2-2 08:19:04

Makoto8023 17#

2021-2-2 08:19:04

谢谢分享
回复 支持 反对

使用道具 举报

SZEE 发表于 2021-2-2 09:39:21

SZEE 18#

2021-2-2 09:39:21

感谢分享
回复 支持 反对

使用道具 举报

   发表回复

您需要登录后才可以回帖 登录 | 立即注册

返回列表 本版积分规则

  • 在线客服

  • 返回顶部