微博 微信

Hao4K影音

电影频道
电影封面:
片  名: Love.Jacked 4K
电影分类: 喜剧 爱情片 
国  家: 美国 
年  代: 2018年
分 辨 率: 4K(3840x2160)
电影格式: MKV|REMUX 
画质标准: SDR 
音质编码: Dolby Digital Plus Audio 
电影声道: 5.1声道 
帧数/FPS: 23.976 FPS
电影语言: 英文原版 
资源大小: 7.99 GB
导  演: Alfons Adetuyi
豆瓣评分: 5.8 分
中文字幕: -
剧情简介: MAYA, has artistic ambitions - her father ED wants a dutiful daughter to run the family store. Taking her independence a step further, Maya decides to travel to Africa for inspiration and returns with a fiancé.
Love.Jacked 4K.2018.2160p.NF.WEB-DL.x265.10bit.SDR.DDP5.1-4k电影信息
  1. Video
  2. ID : 1
  3. Format : HEVC
  4. Format/Info : High Efficiency Video Coding
  5. Format profile : Main 10@L5@Main
  6. Codec ID : V_MPEGH/ISO/HEVC
  7. Duration : 1 h 33 min
  8. Bit rate : 11.6 Mb/s
  9. Width : 3 840 pixels
  10. Height : 2 160 pixels
  11. Display aspect ratio : 16:9
  12. Frame rate mode : Constant
  13. Frame rate : 24.000 FPS
  14. Color space : YUV
  15. Chroma subsampling : 4:2:0
  16. Bit depth : 10 bits
  17. Bits/(Pixel*Frame) : 0.058
  18. Stream size : 7.57 GiB (95%)
  19. Default : Yes
  20. Forced : No
  21. Color range : Limited
  22. Color primaries : BT.709
  23. Transfer characteristics : BT.709
  24. Matrix coefficients : BT.709

  25. Audio
  26. ID : 2
  27. Format : E-AC-3
  28. Format/Info : Enhanced AC-3
  29. Commercial name : Dolby Digital Plus
  30. Codec ID : A_EAC3
  31. Duration : 1 h 33 min
  32. Bit rate mode : Constant
  33. Bit rate : 640 kb/s
  34. Channel(s) : 6 channels
  35. Channel layout : L R C LFE Ls Rs
  36. Sampling rate : 48.0 kHz
  37. Frame rate : 31.250 FPS (1536 SPF)
  38. Compression mode : Lossy
  39. Stream size : 429 MiB (5%)
  40. Title : DDP 5.1
  41. Language : English
  42. Service kind : Complete Main
  43. Default : Yes
  44. Forced : No

  45. Text #1
  46. ID : 3
  47. Format : UTF-8
  48. Codec ID : S_TEXT/UTF8
  49. Codec ID/Info : UTF-8 Plain Text
  50. Duration : 1 h 29 min
  51. Bit rate : 79 b/s
  52. Count of elements : 1823
  53. Stream size : 51.9 KiB (0%)
  54. Title : SDH
  55. Language : English
  56. Default : Yes
  57. Forced : No

  58. Text #2
  59. ID : 4
  60. Format : UTF-8
  61. Codec ID : S_TEXT/UTF8
  62. Codec ID/Info : UTF-8 Plain Text
  63. Duration : 1 h 32 min
  64. Bit rate : 47 b/s
  65. Count of elements : 1090
  66. Stream size : 32.0 KiB (0%)
  67. Language : Danish
  68. Default : No
  69. Forced : No

  70. Text #3
  71. ID : 5
  72. Format : UTF-8
  73. Codec ID : S_TEXT/UTF8
  74. Codec ID/Info : UTF-8 Plain Text
  75. Duration : 1 h 32 min
  76. Bit rate : 54 b/s
  77. Count of elements : 1162
  78. Stream size : 36.8 KiB (0%)
  79. Language : German
  80. Default : No
  81. Forced : No

  82. Text #4
  83. ID : 6
  84. Format : UTF-8
  85. Codec ID : S_TEXT/UTF8
  86. Codec ID/Info : UTF-8 Plain Text
  87. Duration : 1 h 32 min
  88. Bit rate : 49 b/s
  89. Count of elements : 1200
  90. Stream size : 33.9 KiB (0%)
  91. Language : Spanish
  92. Default : No
  93. Forced : No

  94. Text #5
  95. ID : 7
  96. Format : UTF-8
  97. Codec ID : S_TEXT/UTF8
  98. Codec ID/Info : UTF-8 Plain Text
  99. Duration : 1 h 32 min
  100. Bit rate : 52 b/s
  101. Count of elements : 1220
  102. Stream size : 35.5 KiB (0%)
  103. Language : Spanish
  104. Default : No
  105. Forced : No

  106. Text #6
  107. ID : 8
  108. Format : UTF-8
  109. Codec ID : S_TEXT/UTF8
  110. Codec ID/Info : UTF-8 Plain Text
  111. Duration : 1 h 32 min
  112. Bit rate : 48 b/s
  113. Count of elements : 1294
  114. Stream size : 32.8 KiB (0%)
  115. Language : Finnish
  116. Default : No
  117. Forced : No

  118. Text #7
  119. ID : 9
  120. Format : UTF-8
  121. Codec ID : S_TEXT/UTF8
  122. Codec ID/Info : UTF-8 Plain Text
  123. Duration : 1 h 32 min
  124. Bit rate : 46 b/s
  125. Count of elements : 1194
  126. Stream size : 31.9 KiB (0%)
  127. Language : French
  128. Default : No
  129. Forced : No

  130. Text #8
  131. ID : 10
  132. Format : UTF-8
  133. Codec ID : S_TEXT/UTF8
  134. Codec ID/Info : UTF-8 Plain Text
  135. Duration : 1 h 29 min
  136. Bit rate : 96 b/s
  137. Count of elements : 1274
  138. Stream size : 63.2 KiB (0%)
  139. Language : Arabic
  140. Default : No
  141. Forced : No

  142. Text #9
  143. ID : 11
  144. Format : UTF-8
  145. Codec ID : S_TEXT/UTF8
  146. Codec ID/Info : UTF-8 Plain Text
  147. Duration : 1 h 32 min
  148. Bit rate : 51 b/s
  149. Count of elements : 1294
  150. Stream size : 34.8 KiB (0%)
  151. Language : Hungarian
  152. Default : No
  153. Forced : No

  154. Text #10
  155. ID : 12
  156. Format : UTF-8
  157. Codec ID : S_TEXT/UTF8
  158. Codec ID/Info : UTF-8 Plain Text
  159. Duration : 1 h 32 min
  160. Bit rate : 48 b/s
  161. Count of elements : 1159
  162. Stream size : 32.9 KiB (0%)
  163. Language : Polish
  164. Default : No
  165. Forced : No

  166. Text #11
  167. ID : 13
  168. Format : UTF-8
  169. Codec ID : S_TEXT/UTF8
  170. Codec ID/Info : UTF-8 Plain Text
  171. Duration : 1 h 32 min
  172. Bit rate : 51 b/s
  173. Count of elements : 1283
  174. Stream size : 34.9 KiB (0%)
  175. Language : Czech
  176. Default : No
  177. Forced : No

  178. Text #12
  179. ID : 14
  180. Format : UTF-8
  181. Codec ID : S_TEXT/UTF8
  182. Codec ID/Info : UTF-8 Plain Text
  183. Duration : 1 h 32 min
  184. Bit rate : 46 b/s
  185. Count of elements : 1258
  186. Stream size : 32.0 KiB (0%)
  187. Language : Italian
  188. Default : No
  189. Forced : No

  190. Text #13
  191. ID : 15
  192. Format : UTF-8
  193. Codec ID : S_TEXT/UTF8
  194. Codec ID/Info : UTF-8 Plain Text
  195. Duration : 1 h 29 min
  196. Bit rate : 54 b/s
  197. Count of elements : 1058
  198. Stream size : 35.8 KiB (0%)
  199. Language : Norwegian Bokmal
  200. Default : No
  201. Forced : No

  202. Text #14
  203. ID : 16
  204. Format : UTF-8
  205. Codec ID : S_TEXT/UTF8
  206. Codec ID/Info : UTF-8 Plain Text
  207. Duration : 1 h 32 min
  208. Bit rate : 44 b/s
  209. Count of elements : 1211
  210. Stream size : 30.3 KiB (0%)
  211. Language : Dutch
  212. Default : No
  213. Forced : No

  214. Text #15
  215. ID : 17
  216. Format : UTF-8
  217. Codec ID : S_TEXT/UTF8
  218. Codec ID/Info : UTF-8 Plain Text
  219. Duration : 1 h 32 min
  220. Bit rate : 47 b/s
  221. Count of elements : 1042
  222. Stream size : 32.5 KiB (0%)
  223. Language : Swedish
  224. Default : No
  225. Forced : No

  226. Text #16
  227. ID : 18
  228. Format : UTF-8
  229. Codec ID : S_TEXT/UTF8
  230. Codec ID/Info : UTF-8 Plain Text
  231. Duration : 1 h 32 min
  232. Bit rate : 51 b/s
  233. Count of elements : 1251
  234. Stream size : 34.8 KiB (0%)
  235. Language : Turkish
  236. Default : No
  237. Forced : No

  238. Text #17
  239. ID : 19
  240. Format : UTF-8
  241. Codec ID : S_TEXT/UTF8
  242. Codec ID/Info : UTF-8 Plain Text
  243. Duration : 1 h 32 min
  244. Bit rate : 51 b/s
  245. Count of elements : 1291
  246. Stream size : 34.7 KiB (0%)
  247. Title : Brasil
  248. Language : Portuguese
  249. Default : No
  250. Forced : No

  251. Text #18
  252. ID : 20
  253. Format : UTF-8
  254. Codec ID : S_TEXT/UTF8
  255. Codec ID/Info : UTF-8 Plain Text
  256. Duration : 1 h 32 min
  257. Bit rate : 51 b/s
  258. Count of elements : 1275
  259. Stream size : 35.1 KiB (0%)
  260. Language : Portuguese
  261. Default : No
  262. Forced : No
复制代码

Love.Jacked 4K.2018.2160p.NF.WEB-DL.x265.10bit.SDR.DDP5.1-4K电影下载
Love.Jacked 4K.2018.2160p.NF.WEB-DL.x265.10bit.SDR.DDP5.1【4K SDR 7.99 GB 】
[Hao4K]Love.Jacked 4K.2018.2160p.NF.WEB-DL.x265.10bit.SDR.DDP5.1-SWTYBLZ.torrent (40.5 KB)
回复

使用道具 举报

全部回复21

13983357213 发表于 2021-2-1 11:04:20

13983357213 沙发

2021-2-1 11:04:20

哈哈 感谢大哥分享  我来下载看看这个电影怎么样
回复 支持 反对

使用道具 举报

yangly 发表于 2021-2-1 11:56:32

yangly 板凳

2021-2-1 11:56:32

感谢分享 下载看看
回复 支持 反对

使用道具 举报

sweettony 发表于 2021-2-1 15:55:18

sweettony 地板

2021-2-1 15:55:18

感谢分享 有字幕吗?
回复 支持 反对

使用道具 举报

sunday0510 发表于 2021-2-1 20:03:01

sunday0510 5#

2021-2-1 20:03:01

有中文字幕吗
回复 支持 反对

使用道具 举报

vmonster 发表于 2021-2-1 21:52:09

vmonster 6#

2021-2-1 21:52:09

感谢分享 下载看看
回复 支持 反对

使用道具 举报

yale 发表于 2021-2-1 22:51:51

yale 7#

2021-2-1 22:51:51

谢谢分享
回复 支持 反对

使用道具 举报

xia6909 发表于 2021-2-2 06:31:17

xia6909 8#

2021-2-2 06:31:17

感谢分享
回复 支持 反对

使用道具 举报

dyczw 发表于 2021-2-2 06:40:02

dyczw 9#

2021-2-2 06:40:02

感谢分享,辛苦了
回复 支持 反对

使用道具 举报

panbell 发表于 2021-2-2 10:27:56

panbell 10#

2021-2-2 10:27:56

感谢楼主的分享,很好很强大
回复 支持 反对

使用道具 举报

ek5132468 发表于 2021-2-2 13:35:03

ek5132468 11#

2021-2-2 13:35:03

谢谢分享
回复 支持 反对

使用道具 举报

chuchan1 发表于 2021-2-2 14:58:41

chuchan1 12#

2021-2-2 14:58:41

谢谢分享,学习了
回复 支持 反对

使用道具 举报

1461839162 发表于 2021-2-2 15:54:05

1461839162 13#

2021-2-2 15:54:05

谢谢分享
回复 支持 反对

使用道具 举报

liudaye 发表于 2021-2-2 19:26:06

liudaye 14#

2021-2-2 19:26:06

谢谢分享
回复 支持 反对

使用道具 举报

Makoto8023 发表于 2021-2-3 08:06:06

Makoto8023 15#

2021-2-3 08:06:06

谢谢分享
回复 支持 反对

使用道具 举报

dk30129 发表于 2021-2-3 08:11:53

dk30129 16#

2021-2-3 08:11:53

谢谢分享,辛苦了!
回复 支持 反对

使用道具 举报

panbell 发表于 2021-2-3 09:54:21

panbell 17#

2021-2-3 09:54:21

谢谢分享,学习了
回复 支持 反对

使用道具 举报

chuchan1 发表于 2021-2-5 13:29:24

chuchan1 18#

2021-2-5 13:29:24



好资源,谢谢分享!
回复 支持 反对

使用道具 举报

   发表回复

您需要登录后才可以回帖 登录 | 立即注册

返回列表 本版积分规则

  • 在线客服

  • 返回顶部