微博 微信

Hao4K影音

[美剧] 完美星球4k A.Perfect.Planet.S01.2160p.纪录片美剧下载

2021-2-6 15:35:43 64474 23 |只看大图 回帖奖励 |倒序浏览 |阅读模式

大红色 楼主

2021-2-2 16:27:05

电视剧频道
电视剧封面:
电视剧名: 完美星球4k
年  代: 2021  
国  家: 英国
类  别: 纪录片 
语  言: 英语
字  幕: -
上映日期: 2020
文件格式: mkv    
视频效果: 4K(3840x2160)    
资源大小: 48.68 GB
片  长: 60 分钟
导  演: 大卫·爱登堡
剧情简介: 《完美星球》是一部与地球科学巧妙结合的蓝筹自然历史纪录片,它揭示了我们所生存的这颗星球的运转规则。 这部纪录片共分为五集,展示了自然力量如何推动、塑造和维持地球生物的多样性,前四集分别探索了火山、 阳光、天气和海洋的力量,最后一集则着眼于新兴的自然力量:人类,揭示了人类对地球造成的巨大影响以及如何恢复地球完美的生态平衡。
  从印度雨季潮湿的土地到夏威夷火山炽热的山坡;从巴哈马的潮汐岛屿到冰天雪地的埃尔斯米尔岛;从冬夜郊外嚎叫的北极狼群到春季结冰的身体慢慢融化的木蛙;从加拉帕戈斯群岛以吸食海鸟鲜血解渴的吸血地雀,到每年成群结队聚集在火山湖中繁殖的非洲小红鹳,《完美星球》将带领我们踏上一场无与伦比的视觉之旅。
  这部纪录片将改变我们看待自然家园的方式。我们将一次又一次地见证地球所具有的强大自然力量是如何孕育生命的。
完美星球4k A.Perfect.Planet.S01.2160p.UHD.BluRay.x265.10bit.HDR.TrueHD.7.1.Atmos.纪录片美剧信息
  1. Video
  2. ID : 1
  3. Format : HEVC
  4. Format/Info : High Efficiency Video Coding
  5. Format profile : Main 10@L5.1@High
  6. HDR format : SMPTE ST 2086, HDR10 compatible
  7. Codec ID : V_MPEGH/ISO/HEVC
  8. Duration : 1 h 0 min
  9. Bit rate : 21.1 Mb/s
  10. Width : 3 840 pixels
  11. Height : 2 160 pixels
  12. Display aspect ratio : 16:9
  13. Frame rate mode : Constant
  14. Frame rate : 23.976 (24000/1001) FPS
  15. Color space : YUV
  16. Chroma subsampling : 4:2:0 (Type 2)
  17. Bit depth : 10 bits
  18. Bits/(Pixel*Frame) : 0.106
  19. Stream size : 8.91 GiB (81%)
  20. Writing library : x265 3.4+12-g9103319fc:[Windows][MSVC 1900][64 bit] 10bit
  21. Encoding settings : cpuid=1176575 / frame-threads=6 / numa-pools=32 / wpp / no-pmode / no-pme / no-psnr / no-ssim / log-level=2 / input-csp=1 / input-res=3840x2160 / interlace=0 / total-frames=86831 / level-idc=51 / high-tier=1 / uhd-bd=0 / ref=4 / no-allow-non-conformance / repeat-headers / annexb / aud / hrd / info / hash=0 / no-temporal-layers / no-open-gop / min-keyint=23 / keyint=250 / gop-lookahead=0 / bframes=4 / b-adapt=2 / b-pyramid / bframe-bias=0 / rc-lookahead=25 / lookahead-slices=4 / scenecut=40 / hist-scenecut=0 / radl=0 / no-splice / no-intra-refresh / ctu=64 / min-cu-size=8 / rect / no-amp / max-tu-size=32 / tu-inter-depth=1 / tu-intra-depth=1 / limit-tu=0 / rdoq-level=2 / dynamic-rd=0.00 / no-ssim-rd / signhide / no-tskip / nr-intra=0 / nr-inter=0 / no-constrained-intra / no-strong-intra-smoothing / max-merge=3 / limit-refs=3 / limit-modes / me=3 / subme=3 / merange=57 / temporal-mvp / no-frame-dup / no-hme / weightp / no-weightb / no-analyze-src-pics / deblock=-3:-3 / no-sao / no-sao-non-deblock / rd=4 / selective-sao=0 / no-early-skip / rskip / no-fast-intra / no-tskip-fast / no-cu-lossless / no-b-intra / no-splitrd-skip / rdpenalty=0 / psy-rd=2.00 / psy-rdoq=1.00 / no-rd-refine / no-lossless / cbqpoffs=0 / crqpoffs=0 / rc=crf / crf=16.0 / qcomp=0.60 / qpstep=4 / stats-write=0 / stats-read=0 / vbv-maxrate=160000 / vbv-bufsize=160000 / vbv-init=0.9 / crf-max=0.0 / crf-min=0.0 / ipratio=1.40 / pbratio=1.30 / aq-mode=2 / aq-strength=0.80 / cutree / zone-count=0 / no-strict-cbr / qg-size=32 / no-rc-grain / qpmax=69 / qpmin=0 / no-const-vbv / sar=1 / overscan=0 / videoformat=5 / range=0 / colorprim=9 / transfer=16 / colormatrix=9 / chromaloc=1 / chromaloc-top=2 / chromaloc-bottom=2 / display-window=0 / master-display=G(13250,34500)B(7500,3000)R(34000,16000)WP(15635,16450)L(10000000,50) / cll=1001,444 / min-luma=0 / max-luma=1023 / log2-max-poc-lsb=8 / vui-timing-info / vui-hrd-info / slices=1 / no-opt-qp-pps / no-opt-ref-list-length-pps / no-multi-pass-opt-rps / scenecut-bias=0.05 / hist-threshold=0.01 / no-opt-cu-delta-qp / no-aq-motion / hdr10 / hdr10-opt / no-dhdr10-opt / no-idr-recovery-sei / analysis-reuse-level=0 / analysis-save-reuse-level=0 / analysis-load-reuse-level=0 / scale-factor=0 / refine-intra=0 / refine-inter=0 / refine-mv=1 / refine-ctu-distortion=0 / no-limit-sao / ctu-info=0 / no-lowpass-dct / refine-analysis-type=0 / copy-pic=1 / max-ausize-factor=1.0 / no-dynamic-refine / no-single-sei / no-hevc-aq / no-svt / no-field / qp-adaptation-range=1.00 / no-scenecut-aware-qpconformance-window-offsets / right=0 / bottom=0 / decoder-max-rate=0
  22. Default : Yes
  23. Forced : No
  24. Color range : Limited
  25. Color primaries : BT.2020
  26. Transfer characteristics : PQ
  27. Matrix coefficients : BT.2020 non-constant
  28. Mastering display color primaries : Display P3
  29. Mastering display luminance : min: 0.0050 cd/m2, max: 1000 cd/m2
  30. Maximum Content Light Level : 1001 cd/m2
  31. Maximum Frame-Average Light Level : 444 cd/m2

  32. Audio #1
  33. ID : 2
  34. Format : MLP FBA 16-ch
  35. Format/Info : Meridian Lossless Packing FBA with 16-channel presentation
  36. Commercial name : Dolby TrueHD with Dolby Atmos
  37. Codec ID : A_TRUEHD
  38. Duration : 1 h 0 min
  39. Bit rate mode : Variable
  40. Bit rate : 4 361 kb/s
  41. Maximum bit rate : 6 987 kb/s
  42. Channel(s) : 8 channels
  43. Channel layout : L R C LFE Ls Rs Lb Rb
  44. Sampling rate : 48.0 kHz
  45. Frame rate : 1 200.000 FPS (40 SPF)
  46. Compression mode : Lossless
  47. Stream size : 1.84 GiB (17%)
  48. Title : Atmos 7.1
  49. Language : English
  50. Default : Yes
  51. Forced : No
  52. Number of dynamic objects : 11
  53. Bed channel count : 1 channel
  54. Bed channel configuration : LFE

  55. Audio #2
  56. ID : 3
  57. Format : AC-3
  58. Format/Info : Audio Coding 3
  59. Commercial name : Dolby Digital
  60. Codec ID : A_AC3
  61. Duration : 1 h 0 min
  62. Bit rate mode : Constant
  63. Bit rate : 640 kb/s
  64. Channel(s) : 6 channels
  65. Channel layout : L R C LFE Ls Rs
  66. Sampling rate : 48.0 kHz
  67. Frame rate : 31.250 FPS (1536 SPF)
  68. Compression mode : Lossy
  69. Stream size : 276 MiB (2%)
  70. Title : AC-3 5.1
  71. Language : English
  72. Service kind : Complete Main
  73. Default : No
  74. Forced : No

  75. Text
  76. ID : 4
  77. Format : PGS
  78. Muxing mode : zlib
  79. Codec ID : S_HDMV/PGS
  80. Codec ID/Info : Picture based subtitle format used on BDs/HD-DVDs
  81. Duration : 59 min 8 s
  82. Bit rate : 55.0 kb/s
  83. Count of elements : 1468
  84. Stream size : 23.3 MiB (0%)
  85. Title : English
  86. Language : English
  87. Default : No
  88. Forced : No

  89. Menu
  90. 00:00:00.000 : en:Chapter 01
  91. 00:10:54.779 : en:Chapter 02
  92. 00:21:28.078 : en:Chapter 03
  93. 00:33:29.716 : en:Chapter 04
  94. 00:40:56.663 : en:Chapter 05
  95. 00:49:21.917 : en:Chapter 06
复制代码

完美星球4k A.Perfect.Planet.S01.2160p.UHD.BluRay.x265.10bit.HDR.TrueHD.7.1.Atmos.纪录片美剧下载

完美星球4k A.Perfect.Planet.S01.2160p.UHD.BluRay.x265.10bit.HDR.TrueHD.7.1.Atmos.【48.68 GB】
[Hao4k]完美星球4k A.Perfect.Planet.S01.2160p.UHD.BluRay.x265.10bit.HDR.TrueHD.7..torrent (122.62 KB, 售价: 3 K币)
回复

使用道具 举报

heik2001 发表于 2021-2-5 10:40:27

heik2001 推荐

2021-2-5 10:40:27

hnpqzm777 发表于 2021-2-2 20:42
迅雷只有几k的速度,uTorrent一点速度都没有,用什么软件下能快点呢...

花钱买个会员吧,这一百多绝对值。我以前用破解版,常常的下到后面没动静了挂几天都没用,刚刚买了个12T的打算洗洗盘,买了1个月会员试试,不试不知道这云盘太好用了。
回复 支持 反对

使用道具 举报

hnpqzm777 发表于 2021-2-2 20:42:27

hnpqzm777 推荐

2021-2-2 20:42:27

迅雷只有几k的速度,uTorrent一点速度都没有,用什么软件下能快点呢...
回复 支持 反对

使用道具 举报

power8 发表于 2021-2-2 19:21:03

power8 地板

2021-2-2 19:21:03

非常好的资源
大力支持
回复 支持 反对

使用道具 举报

daishuxuan 发表于 2021-2-2 20:41:04

daishuxuan 5#

2021-2-2 20:41:04

已在腾讯视频看过了,支持一下!
回复 支持 反对

使用道具 举报

新起点2017 发表于 2021-2-3 08:17:18

新起点2017 6#

2021-2-3 08:17:18

人多速度才会快。大家一起来加速吧。
回复 支持 反对

使用道具 举报

gp6410 发表于 2021-2-3 09:57:56

gp6410 7#

2021-2-3 09:57:56

非常好,就是K币不够。
回复 支持 反对

使用道具 举报

cycjhb 发表于 2021-2-3 12:42:08

cycjhb 8#

2021-2-3 12:42:08

哇塞哇塞,美的呀,谢谢楼主
回复 支持 反对

使用道具 举报

ggang 发表于 2021-2-3 13:02:45

ggang 9#

2021-2-3 13:02:45

终于来了
回复 支持 反对

使用道具 举报

r31325 发表于 2021-2-3 15:01:32

r31325 10#

2021-2-3 15:01:32

一贯的高水平。
回复 支持 反对

使用道具 举报

huochangping 发表于 2021-2-3 20:01:30

huochangping 11#

2021-2-3 20:01:30

有字幕吗?给孩子看
回复 支持 反对

使用道具 举报

dvd752 发表于 2021-2-4 09:10:47

dvd752 12#

2021-2-4 09:10:47

下了一个720P的,有了2160P就抛弃了她!呜呜
回复 支持 反对

使用道具 举报

vsean 发表于 2021-2-4 11:35:35

vsean 13#

2021-2-4 11:35:35

这是一集还是5集?
回复 支持 反对

使用道具 举报

世界之巅1217 发表于 2021-2-4 14:38:54

世界之巅1217 14#

2021-2-4 14:38:54

谢谢分享
回复 支持 反对

使用道具 举报

leehelsing 发表于 2021-2-4 21:58:10

leehelsing 15#

2021-2-4 21:58:10

好资源,谢谢分享!
回复 支持 反对

使用道具 举报

guilty45 发表于 2021-2-5 10:10:22

guilty45 16#

2021-2-5 10:10:22

有中文音轨吗?给小孩子看
回复 支持 反对

使用道具 举报

弑杀武姬 发表于 2021-2-6 11:57:26

弑杀武姬 17#

2021-2-6 11:57:26

有没有对应字幕,找了好多时间轴都对不上
回复 支持 反对

使用道具 举报

alantao777 发表于 2021-2-6 15:35:43

alantao777 18#

2021-2-6 15:35:43

希望尽快出一个匹配的字幕,谢谢。
回复 支持 反对

使用道具 举报

   发表回复

您需要登录后才可以回帖 登录 | 立即注册

返回列表 本版积分规则

:
白银玩家
:
未填写

主题

帖子

积分995

图文推荐

  • 2020年十大新品4K蓝光机4K硬盘播放机推荐

    今年疫情停滞了多数人的脚步,但在4K这个圈子各大

  • 索尼PS5播放4K电影,PS5和播放机对比效果那

    大家好我是成都刘老烧,折腾是开心,分享是快乐,

  • 芝杜Z10Pro 4K播放机开箱及对比杜恩PRO2评

    折腾是开心,分享是快乐,大家好我是成都刘老烧,

  • 如何在铁威马NAS中远程挂载文件夹?

    在铁威马TOS 4.2的系统中支持远程挂载文件夹,可

  • PC党到底有没有必要入手播放器?

    打个比方,我现在的电脑利用potplayer+lav+madvr

  • 在线客服

  • 返回顶部