微博 微信

Hao4K影音

[美剧] 幻灭 第二季4k Disenchantment.S02.2160p.美剧下载

2021-2-27 14:01:07 15422 6 |只看大图 回帖奖励 |倒序浏览 |阅读模式

大红色 楼主

2021-2-2 16:43:09

电视剧频道
电视剧封面:
电视剧名: 幻灭 第二季4k
年  代: 2019  
国  家: 美国
类  别: 动画 
语  言: 英语
字  幕: 英文原版
上映日期: 2019-09-20
文件格式: mkv    
视频效果: 4K(3840x2160)    
资源大小: 18.35 GB
片  长: 30 分钟
导  演: Albert Calleros
剧情简介:  Bean travels with Dagmar to her homeland, Maru, where she rescues an old friend and learns of a mysterious prophecy she\'s expected to fulfill.
崩坏梦王国/幻灭 第二季4k Disenchantment.S02.2160p.NF.WEBRip.DDP5.1.x265.美剧信息
  1. Video
  2. ID : 1
  3. Format : HEVC
  4. Format/Info : High Efficiency Video Coding
  5. Format profile : Main 10@L5.1@High
  6. Codec ID : V_MPEGH/ISO/HEVC
  7. Duration : 31 min 6 s
  8. Bit rate : 10.9 Mb/s
  9. Width : 3 840 pixels
  10. Height : 2 160 pixels
  11. Display aspect ratio : 16:9
  12. Frame rate mode : Constant
  13. Frame rate : 23.976 (24000/1001) FPS
  14. Color space : YUV
  15. Chroma subsampling : 4:2:0
  16. Bit depth : 10 bits
  17. Bits/(Pixel*Frame) : 0.055
  18. Stream size : 2.36 GiB (94%)
  19. Writing library : x265 3.4+30-g6722fce1f:[Windows][GCC 10.2.0][64 bit] 10bit
  20. Encoding settings : cpuid=1111039 / frame-threads=4 / numa-pools=24 / wpp / no-pmode / no-pme / no-psnr / no-ssim / log-level=2 / input-csp=1 / input-res=3840x2160 / interlace=0 / total-frames=44749 / level-idc=51 / high-tier=1 / uhd-bd=0 / ref=5 / no-allow-non-conformance / no-repeat-headers / annexb / no-aud / no-hrd / info / hash=0 / no-temporal-layers / open-gop / min-keyint=23 / keyint=250 / gop-lookahead=0 / bframes=8 / b-adapt=2 / b-pyramid / bframe-bias=0 / rc-lookahead=40 / lookahead-slices=8 / scenecut=40 / hist-scenecut=0 / radl=0 / no-splice / no-intra-refresh / ctu=64 / min-cu-size=8 / no-rect / no-amp / max-tu-size=32 / tu-inter-depth=4 / tu-intra-depth=4 / limit-tu=4 / rdoq-level=0 / dynamic-rd=0.00 / no-ssim-rd / signhide / no-tskip / nr-intra=0 / nr-inter=0 / no-constrained-intra / strong-intra-smoothing / max-merge=4 / limit-refs=1 / no-limit-modes / me=1 / subme=5 / merange=57 / temporal-mvp / no-frame-dup / no-hme / weightp / weightb / no-analyze-src-pics / deblock=-1:-1 / no-sao / no-sao-non-deblock / rd=4 / selective-sao=0 / early-skip / rskip / no-fast-intra / no-tskip-fast / no-cu-lossless / b-intra / no-splitrd-skip / rdpenalty=0 / psy-rd=1.00 / psy-rdoq=0.00 / no-rd-refine / no-lossless / cbqpoffs=-2 / crqpoffs=-2 / rc=crf / crf=19.0 / qcomp=0.80 / qpstep=4 / stats-write=0 / stats-read=0 / vbv-maxrate=50000 / vbv-bufsize=50000 / vbv-init=0.9 / min-vbv-fullness=50.0 / max-vbv-fullness=80.0 / crf-max=0.0 / crf-min=0.0 / ipratio=1.40 / pbratio=1.30 / aq-mode=1 / aq-strength=1.00 / no-cutree / zone-count=0 / no-strict-cbr / qg-size=32 / no-rc-grain / qpmax=69 / qpmin=0 / no-const-vbv / sar=1 / overscan=0 / videoformat=5 / range=0 / colorprim=1 / transfer=1 / colormatrix=1 / chromaloc=0 / display-window=0 / cll=0,0 / min-luma=0 / max-luma=1023 / log2-max-poc-lsb=8 / vui-timing-info / vui-hrd-info / slices=1 / no-opt-qp-pps / no-opt-ref-list-length-pps / no-multi-pass-opt-rps / scenecut-bias=0.05 / hist-threshold=0.03 / no-opt-cu-delta-qp / no-aq-motion / no-hdr10 / no-hdr10-opt / no-dhdr10-opt / no-idr-recovery-sei / analysis-reuse-level=0 / analysis-save-reuse-level=0 / analysis-load-reuse-level=0 / scale-factor=0 / refine-intra=0 / refine-inter=0 / refine-mv=1 / refine-ctu-distortion=0 / no-limit-sao / ctu-info=0 / no-lowpass-dct / refine-analysis-type=0 / copy-pic=1 / max-ausize-factor=1.0 / no-dynamic-refine / no-single-sei / no-hevc-aq / no-svt / no-field / qp-adaptation-range=1.00 / no-scenecut-aware-qpconformance-window-offsets / right=0 / bottom=0 / decoder-max-rate=0 / no-vbv-live-multi-pass
  21. Default : Yes
  22. Forced : No
  23. Color range : Limited
  24. Color primaries : BT.709
  25. Transfer characteristics : BT.709
  26. Matrix coefficients : BT.709

  27. Audio
  28. ID : 2
  29. Format : E-AC-3
  30. Format/Info : Enhanced AC-3
  31. Commercial name : Dolby Digital Plus
  32. Codec ID : A_EAC3
  33. Duration : 31 min 6 s
  34. Bit rate mode : Constant
  35. Bit rate : 640 kb/s
  36. Channel(s) : 6 channels
  37. Channel layout : L R C LFE Ls Rs
  38. Sampling rate : 48.0 kHz
  39. Frame rate : 31.250 FPS (1536 SPF)
  40. Compression mode : Lossy
  41. Stream size : 142 MiB (6%)
  42. Language : English
  43. Service kind : Complete Main
  44. Default : Yes
  45. Forced : No

  46. Text #1
  47. ID : 3
  48. Format : UTF-8
  49. Codec ID : S_TEXT/UTF8
  50. Codec ID/Info : UTF-8 Plain Text
  51. Duration : 28 min 33 s
  52. Bit rate : 82 b/s
  53. Count of elements : 498
  54. Stream size : 17.4 KiB (0%)
  55. Title : SDH
  56. Language : English
  57. Default : No
  58. Forced : No

  59. Text #2
  60. ID : 4
  61. Format : UTF-8
  62. Codec ID : S_TEXT/UTF8
  63. Codec ID/Info : UTF-8 Plain Text
  64. Duration : 29 min 31 s
  65. Bit rate : 120 b/s
  66. Count of elements : 424
  67. Stream size : 26.0 KiB (0%)
  68. Language : Arabic
  69. Default : No
  70. Forced : No

  71. Text #3
  72. ID : 5
  73. Format : UTF-8
  74. Codec ID : S_TEXT/UTF8
  75. Codec ID/Info : UTF-8 Plain Text
  76. Duration : 29 min 31 s
  77. Bit rate : 71 b/s
  78. Count of elements : 422
  79. Stream size : 15.5 KiB (0%)
  80. Language : Czech
  81. Default : No
  82. Forced : No

  83. Text #4
  84. ID : 6
  85. Format : UTF-8
  86. Codec ID : S_TEXT/UTF8
  87. Codec ID/Info : UTF-8 Plain Text
  88. Duration : 29 min 31 s
  89. Bit rate : 58 b/s
  90. Count of elements : 420
  91. Stream size : 12.7 KiB (0%)
  92. Language : Danish
  93. Default : No
  94. Forced : No

  95. Text #5
  96. ID : 7
  97. Format : UTF-8
  98. Codec ID : S_TEXT/UTF8
  99. Codec ID/Info : UTF-8 Plain Text
  100. Duration : 29 min 31 s
  101. Bit rate : 65 b/s
  102. Count of elements : 421
  103. Stream size : 14.3 KiB (0%)
  104. Language : German
  105. Default : No
  106. Forced : No

  107. Text #6
  108. ID : 8
  109. Format : UTF-8
  110. Codec ID : S_TEXT/UTF8
  111. Codec ID/Info : UTF-8 Plain Text
  112. Duration : 29 min 31 s
  113. Bit rate : 118 b/s
  114. Count of elements : 423
  115. Stream size : 25.6 KiB (0%)
  116. Language : Greek
  117. Default : No
  118. Forced : No

  119. Text #7
  120. ID : 9
  121. Format : UTF-8
  122. Codec ID : S_TEXT/UTF8
  123. Codec ID/Info : UTF-8 Plain Text
  124. Duration : 29 min 31 s
  125. Bit rate : 70 b/s
  126. Count of elements : 422
  127. Stream size : 15.2 KiB (0%)
  128. Language : Spanish
  129. Default : No
  130. Forced : No

  131. Text #8
  132. ID : 10
  133. Format : UTF-8
  134. Codec ID : S_TEXT/UTF8
  135. Codec ID/Info : UTF-8 Plain Text
  136. Duration : 29 min 31 s
  137. Bit rate : 67 b/s
  138. Count of elements : 421
  139. Stream size : 14.6 KiB (0%)
  140. Title : European
  141. Language : Spanish
  142. Default : No
  143. Forced : No

  144. Text #9
  145. ID : 11
  146. Format : UTF-8
  147. Codec ID : S_TEXT/UTF8
  148. Codec ID/Info : UTF-8 Plain Text
  149. Duration : 29 min 31 s
  150. Bit rate : 65 b/s
  151. Count of elements : 420
  152. Stream size : 14.2 KiB (0%)
  153. Language : Finnish
  154. Default : No
  155. Forced : No

  156. Text #10
  157. ID : 12
  158. Format : UTF-8
  159. Codec ID : S_TEXT/UTF8
  160. Codec ID/Info : UTF-8 Plain Text
  161. Duration : 29 min 31 s
  162. Bit rate : 69 b/s
  163. Count of elements : 414
  164. Stream size : 14.9 KiB (0%)
  165. Language : French
  166. Default : No
  167. Forced : No

  168. Text #11
  169. ID : 13
  170. Format : UTF-8
  171. Codec ID : S_TEXT/UTF8
  172. Codec ID/Info : UTF-8 Plain Text
  173. Duration : 29 min 31 s
  174. Bit rate : 108 b/s
  175. Count of elements : 426
  176. Stream size : 23.5 KiB (0%)
  177. Language : Hebrew
  178. Default : No
  179. Forced : No

  180. Text #12
  181. ID : 14
  182. Format : UTF-8
  183. Codec ID : S_TEXT/UTF8
  184. Codec ID/Info : UTF-8 Plain Text
  185. Duration : 29 min 31 s
  186. Bit rate : 65 b/s
  187. Count of elements : 426
  188. Stream size : 14.1 KiB (0%)
  189. Language : Croatian
  190. Default : No
  191. Forced : No
复制代码

崩坏梦王国/幻灭 第二季4k Disenchantment.S02.2160p.NF.WEBRip.DDP5.1.x265.美剧下载

幻灭 第二季4k Disenchantment.S02.2160p.NF.WEBRip.DDP5.1.x265【18.35 GB】
[Hao4k]幻灭 第二季4k Disenchantment.S02.2160p.NF.WEBRip.DDP5.1.x265-NTb[rartv].torrent (93.24 KB)
回复

使用道具 举报

Makoto8023 发表于 2021-2-5 08:10:40

Makoto8023 推荐

2021-2-5 08:10:40

谢谢分享
回复 支持 1 反对 0

使用道具 举报

全部回复6

ek5132468 发表于 2021-2-3 08:58:10

ek5132468 沙发

2021-2-3 08:58:10

谢谢分享
回复 支持 反对

使用道具 举报

Makoto8023 发表于 2021-2-4 08:13:09

Makoto8023 板凳

2021-2-4 08:13:09

谢谢分享
回复 支持 反对

使用道具 举报

世界之巅1217 发表于 2021-2-4 14:38:33

世界之巅1217 地板

2021-2-4 14:38:33

谢谢分享
回复 支持 反对

使用道具 举报

imilan 发表于 2021-2-5 13:50:56

imilan 6#

2021-2-5 13:50:56

无论怎样,感谢楼主!
回复 支持 反对

使用道具 举报

belldandygod 发表于 2021-2-27 14:01:07

belldandygod 7#

2021-2-27 14:01:07

谢谢分享
回复 支持 反对

使用道具 举报

   发表回复

您需要登录后才可以回帖 登录 | 立即注册

返回列表 本版积分规则

:
白银玩家
:
未填写

主题

帖子

积分1006

图文推荐

  • 99新3T硬盘带资源出售

    可烤满4K、1080P,豆瓣高分影片。 399元烤满

  • 出开博尔Q20PLUS+戴尔UP2718q hdr1000显示

    设备升级了,转让纯一手开博尔Q20PLUS 4K硬盘播放

  • 【已售】出售115永久皇冠VIP

    115网盘: 超大空间、高速传输、200G大文

  • 出99新的Xbox one X港服,只买了两个月寻有

    只买了两个月的Xbox one X港服,寻有缘人,拿回来

  • (已出,谢谢)出WD 8T紫盘,带6.6T资源。

    已出,谢谢关注! ======================

  • 在线客服

  • 返回顶部