微博 微信

Hao4K影音

电影频道
电影封面:
片  名: 斯宾塞的机密任务4k
电影分类: 犯罪 惊悚 剧情 悬疑 
国  家: 美国 
年  代: 2020年
分 辨 率: 4K(3840x2160)
电影格式: MKV|REMUX 
画质标准: HDR 
音质编码: 其他DD 
电影声道: 5.1声道 
帧数/FPS: 24.000 FPS
电影语言: 中文简体 中文繁体 英文原版 
资源大小: 11.85 GB
导  演: 彼得·博格
豆瓣评分: 5.8 分
中文字幕: /thread-53881-1-1.html
剧情简介:  这是沃尔伯格和导演彼得·博格自《孤独的幸存者》《恐袭波士顿》《深海浩劫》《22英里》后第五度,合作基于罗伯特·B·派克所著同名小说,派克死后由Ace Atkins接手创作,也是以男主角Spenser为中心的八本系列悬疑小说中的一本。Netflix已经和派克遗产方面达成协议,基于Spenser这一角色打造一系列电影。
  本片将有别于小说,小说讲述Spenser从一个满嘴俏皮话的拳击手变为波士顿的一名私家侦探,电影从Spenser出狱开始讲起,他被剥夺了私人侦探执照,当他揭露了一个耸人听闻的谋杀案和背后阴谋的真相时,他又被拉回了波士顿的黑暗犯罪世界中。尼尔·莫瑞兹(《速度与激情》系列 《越狱》)制片, Sean O’Keefe编写剧本。
隐侠:地下正义(港) / 史宾赛的机密任务(台) / 斯潘瑟机密 / 仙境 / 奇特之地 / Wonderland/斯宾塞的机密任务4k Spenser.Confidential.2020.2160p.NF.WEB-DL.x265.10bit.HDR.DDP5.1.Atmos.电影信息
  1. Video
  2. ID : 1
  3. Format : HEVC
  4. Format/Info : High Efficiency Video Coding
  5. Format profile : Main 10@L5@Main
  6. HDR format : SMPTE ST 2086, HDR10 compatible
  7. Codec ID : V_MPEGH/ISO/HEVC
  8. Duration : 1 h 50 min
  9. Bit rate : 14.6 Mb/s
  10. Width : 3 840 pixels
  11. Height : 2 160 pixels
  12. Display aspect ratio : 16:9
  13. Frame rate mode : Constant
  14. Frame rate : 24.000 FPS
  15. Color space : YUV
  16. Chroma subsampling : 4:2:0 (Type 2)
  17. Bit depth : 10 bits
  18. Bits/(Pixel*Frame) : 0.073
  19. Stream size : 11.3 GiB (95%)
  20. Default : Yes
  21. Forced : No
  22. Color range : Limited
  23. Color primaries : BT.2020
  24. Transfer characteristics : PQ
  25. Matrix coefficients : BT.2020 non-constant
  26. Mastering display color primaries : Display P3
  27. Mastering display luminance : min: 0.0001 cd/m2, max: 1000 cd/m2
  28. Maximum Content Light Level : 839 cd/m2
  29. Maximum Frame-Average Light Level : 515 cd/m2

  30. Audio
  31. ID : 2
  32. Format : E-AC-3 JOC
  33. Format/Info : Enhanced AC-3 with Joint Object Coding
  34. Commercial name : Dolby Digital Plus with Dolby Atmos
  35. Codec ID : A_EAC3
  36. Duration : 1 h 51 min
  37. Bit rate mode : Constant
  38. Bit rate : 768 kb/s
  39. Channel(s) : 6 channels
  40. Channel layout : L R C LFE Ls Rs
  41. Sampling rate : 48.0 kHz
  42. Frame rate : 31.250 FPS (1536 SPF)
  43. Compression mode : Lossy
  44. Stream size : 611 MiB (5%)
  45. Title : DDP 5.1. Atmos
  46. Language : English
  47. Service kind : Complete Main
  48. Default : Yes
  49. Forced : No
  50. Complexity index : 16
  51. Number of dynamic objects : 15
  52. Bed channel count : 1 channel
  53. Bed channel configuration : LFE

  54. Text #1
  55. ID : 3
  56. Format : UTF-8
  57. Codec ID : S_TEXT/UTF8
  58. Codec ID/Info : UTF-8 Plain Text
  59. Duration : 1 h 44 min
  60. Bit rate : 84 b/s
  61. Count of elements : 1906
  62. Stream size : 64.8 KiB (0%)
  63. Language : English
  64. Default : Yes
  65. Forced : No

  66. Text #2
  67. ID : 4
  68. Format : UTF-8
  69. Codec ID : S_TEXT/UTF8
  70. Codec ID/Info : UTF-8 Plain Text
  71. Duration : 1 h 44 min
  72. Bit rate : 56 b/s
  73. Count of elements : 1516
  74. Stream size : 43.5 KiB (0%)
  75. Language : German
  76. Default : No
  77. Forced : No

  78. Text #3
  79. ID : 5
  80. Format : UTF-8
  81. Codec ID : S_TEXT/UTF8
  82. Codec ID/Info : UTF-8 Plain Text
  83. Duration : 1 h 49 min
  84. Bit rate : 111 b/s
  85. Count of elements : 1583
  86. Stream size : 89.8 KiB (0%)
  87. Language : Arabic
  88. Default : No
  89. Forced : No

  90. Text #17
  91. ID : 19
  92. Format : UTF-8
  93. Codec ID : S_TEXT/UTF8
  94. Codec ID/Info : UTF-8 Plain Text
  95. Duration : 1 h 49 min
  96. Bit rate : 65 b/s
  97. Count of elements : 1637
  98. Stream size : 52.6 KiB (0%)
  99. Title : Simplified
  100. Language : Chinese
  101. Default : No
  102. Forced : No

  103. Text #18
  104. ID : 20
  105. Format : UTF-8
  106. Codec ID : S_TEXT/UTF8
  107. Codec ID/Info : UTF-8 Plain Text
  108. Duration : 1 h 49 min
  109. Bit rate : 66 b/s
  110. Count of elements : 1607
  111. Stream size : 53.1 KiB (0%)
  112. Title : Traditional
  113. Language : Chinese
  114. Default : No
  115. Forced : No

复制代码

隐侠:地下正义(港) / 史宾赛的机密任务(台) / 斯潘瑟机密 / 仙境 / 奇特之地 / Wonderland/斯宾塞的机密任务4k Spenser.Confidential.2020.2160p.NF.WEB-DL.x265.10bit.HDR.DDP5.1.Atmos.电影下载

隐侠:地下正义(港) / 史宾赛的机密任务(台) / 斯潘瑟机密 / 仙境 / 奇特之地 / Wonderland/斯宾塞的机密任务4kSpenser.Confidential.2020.2160p.NF.WEB-DL.x265.10bit.HDR.DDP5.1.Atmos.电影下载

斯宾塞的机密任务4k Spenser.Confidential.2020.2160p.NF.WEB-DL.x265.10bit.HDR.DDP5.1.Atmos-简繁中字【11.85 GB】
[Hao4k]斯宾塞的机密任务4k Spenser.Confidential.2020.2160p.NF.WEB-DL.x265.10bit.H.torrent (59.83 KB)
回复

使用道具 举报

   发表回复

您需要登录后才可以回帖 登录 | 立即注册

返回列表 本版积分规则

  • 在线客服

  • 返回顶部