微博 微信

Hao4K影音

[4k测试视频] 安桥-家庭影院-杜比全景声( (Dolby Atmos))音乐演示碟

前天 10:55 19741 12 |只看大图 回帖奖励 |倒序浏览 |阅读模式

673246737 楼主

2021-2-2 18:13:46

此演示片:视频为1080p分辨率,并非4k

视频截图

视频截图

视频截图

视频截图

视频截图

视频截图

杜比全景声音乐演示碟
视频参数如下:

  1. General
  2. ID                             : 0 (0x0)
  3. Complete name                  : \BDMV\STREAM\00001.m2ts
  4. Format                         : BDAV
  5. Format/Info                    : Blu-ray Video
  6. File size                      : 15.8 GiB
  7. Duration                       : 58 min 1 s
  8. Overall bit rate mode          : Variable
  9. Overall bit rate               : 38.9 Mb/s
  10. Maximum Overall bit rate       : 48.0 Mb/s

  11. Video
  12. ID                             : 4113 (0x1011)
  13. Menu ID                        : 1 (0x1)
  14. Format                         : AVC
  15. Format/Info                    : Advanced Video Codec
  16. Format profile                 : High@L4.1
  17. Format settings, CABAC         : Yes
  18. Format settings, ReFrames      : 4 frames
  19. Format settings, GOP           : M=3, N=15
  20. Codec ID                       : 27
  21. Duration                       : 56 min 46 s
  22. Bit rate mode                  : Variable
  23. Bit rate                       : 34.0 Mb/s
  24. Maximum bit rate               : 25.0 Mb/s
  25. Width                          : 1 920 pixels
  26. Height                         : 1 080 pixels
  27. Display aspect ratio           : 16:9
  28. Frame rate                     : 29.970 (30000/1001) FPS
  29. Standard                       : NTSC
  30. Color space                    : YUV
  31. Chroma subsampling             : 4:2:0
  32. Bit depth                      : 8 bits
  33. Scan type                      : Interlaced
  34. Scan type, store method        : Separated fields
  35. Scan order                     : Top Field First
  36. Bits/(Pixel*Frame)             : 0.547
  37. Stream size                    : 13.5 GiB (86%)
  38. Color range                    : Limited
  39. Color primaries                : BT.709
  40. Transfer characteristics       : BT.709
  41. Matrix coefficients            : BT.709

  42. Audio #1
  43. ID                             : 4352 (0x1100)
  44. Menu ID                        : 1 (0x1)
  45. Format                         : PCM
  46. Format settings, Endianness    : Big
  47. Format settings, Sign          : Signed
  48. Muxing mode                    : Blu-ray
  49. Codec ID                       : 128
  50. Duration                       : 56 min 46 s
  51. Bit rate mode                  : Constant
  52. Bit rate                       : 2 304 kb/s
  53. Channel(s)                     : 2 channels
  54. Channel positions              : Front: L R
  55. Sampling rate                  : 48.0 kHz
  56. Bit depth                      : 24 bits
  57. Stream size                    : 936 MiB (6%)

  58. Audio #2
  59. ID                             : 4353 (0x1101)
  60. Menu ID                        : 1 (0x1)
  61. Format                         : TrueHD / AC-3
  62. Mode extension                 : CM (complete main)
  63. Format settings, Endianness    : Big
  64. Muxing mode                    : Stream extension
  65. Codec ID                       : 131
  66. Duration                       : 56 min 46 s
  67. Bit rate mode                  : Variable / Constant
  68. Bit rate                       : 384 kb/s
  69. Maximum bit rate               : 4 236 kb/s
  70. Channel(s)                     : 6 channels
  71. Channel positions              : Front: L C R, Side: L R, LFE
  72. Sampling rate                  : 48.0 kHz
  73. Frame rate                     : 31.250 FPS (1536 spf)
  74. Stream size                    : 156 MiB (1%)

  75. Audio #3
  76. ID                             : 4354 (0x1102)
  77. Menu ID                        : 1 (0x1)
  78. Format                         : Atmos / TrueHD / AC-3
  79. Mode extension                 : CM (complete main)
  80. Format settings, Endianness    : Big
  81. Muxing mode                    : Stream extension
  82. Codec ID                       : 131
  83. Duration                       : 58 min 1 s
  84. Bit rate mode                  : Variable / Constant
  85. Bit rate                       : 640 kb/s
  86. Maximum bit rate               : 9 255 kb/s
  87. Channel(s)                     : Object Based / 8 channels / 6 channels
  88. Channel positions              : Object Based / Front: L C R, Side: L R, Back: L R, LFE / Front: L C R, Side: L R, LFE
  89. Sampling rate                  :  / 48.0 kHz / 48.0 kHz
  90. Frame rate                     : 31.250 FPS (1536 spf)
  91. Stream size                    : 266 MiB (2%)

  92. Text
  93. ID                             : 4608 (0x1200)
  94. Menu ID                        : 1 (0x1)
  95. Format                         : PGS
  96. Codec ID                       : 144
复制代码

分享给大家需要的下载。
安桥-杜比全景声(Atmos)音乐演示碟.torrent (48.38 KB)
回复

使用道具 举报

全部回复12

concord3303 发表于 2021-2-3 00:11:20

concord3303 沙发

2021-2-3 00:11:20

无反应!下不了!
回复 支持 反对

使用道具 举报

guoming 发表于 2021-2-3 07:41:54

guoming 板凳

2021-2-3 07:41:54

下载看看,谢谢楼主分享。
回复 支持 反对

使用道具 举报

673246737 发表于 2021-2-3 09:18:19

673246737 地板

2021-2-3 09:18:19

concord3303 发表于 2021-2-3 00:11
无反应!下不了!

115网盘离线可用
回复 支持 反对

使用道具 举报

珊瑚坝放风筝 发表于 2021-2-3 12:32:02

珊瑚坝放风筝 5#

2021-2-3 12:32:02

漂亮得不要不要的
回复 支持 反对

使用道具 举报

wbg589589 发表于 2021-2-4 08:42:53

wbg589589 6#

2021-2-4 08:42:53

革命尚未成功
回复 支持 反对

使用道具 举报

h701371 发表于 2021-2-4 13:58:15

h701371 7#

2021-2-4 13:58:15

谢谢楼主
回复 支持 反对

使用道具 举报

lyhjc 发表于 2021-2-20 00:12:25 Hao4K手机版

lyhjc 8#

2021-2-20 00:12:25

谢谢分享
回复 支持 反对

使用道具 举报

崔德江ASDFG 发表于 2021-2-22 16:42:31

崔德江ASDFG 9#

2021-2-22 16:42:31

谢谢分享
回复 支持 反对

使用道具 举报

fwdxw 发表于 2021-2-25 15:15:43

fwdxw 10#

2021-2-25 15:15:43

正好试试安桥功放!
回复 支持 反对

使用道具 举报

fwdxw 发表于 2021-2-25 15:17:33

fwdxw 11#

2021-2-25 15:17:33

没有速度!
回复 支持 反对

使用道具 举报

hungkei2005 发表于 3 天前

hungkei2005 12#

3 天前

沒有種子下不了
回复 支持 反对

使用道具 举报

天籁2013 发表于 前天 10:55

天籁2013 13#

前天 10:55

谢谢分享收下了
回复 支持 反对

使用道具 举报

   发表回复

您需要登录后才可以回帖 登录 | 立即注册

返回列表 本版积分规则

:
新手上路
:
未填写

主题

帖子

积分9

图文推荐

  • 99新3T硬盘带资源出售

    可烤满4K、1080P,豆瓣高分影片。 399元烤满

  • 【已售】出售115永久皇冠VIP

    115网盘: 超大空间、高速传输、200G大文

  • 出开博尔Q20PLUS+戴尔UP2718q hdr1000显示

    设备升级了,转让纯一手开博尔Q20PLUS 4K硬盘播放

  • 出99新的Xbox one X港服,只买了两个月寻有

    只买了两个月的Xbox one X港服,寻有缘人,拿回来

  • 杰士RP8000F落地音箱一对,全新拆箱,刚到

    杰士RP8000F(280F升级款)落地音箱一对,全新到

  • 在线客服

  • 返回顶部