微博 微信

Hao4K影音

电影频道
电影封面:
片  名: 乐坛奇案4k
电影分类: 纪录片 其他 
国  家: 美国 
年  代: 2018年
分 辨 率: 4K(3840x2160)
电影格式: MKV|REMUX 
画质标准: SDR 
音质编码: Dolby Digital Plus Audio 
电影声道: 5.1声道 
帧数/FPS: 23.976 FPS
电影语言: 英文原版 
资源大小: 4.95 GB
导  演: 布瑞恩·奥克斯
豆瓣评分:
中文字幕: -
剧情简介:  An in-depth look into the history behind some of the most legendary names in music.
乐坛奇案4k Remastered.Who.Shot.the.Sheriff.2018.2160p.NF.WEB-DL.x265.10bit.SDR.DDP5.1.电影信息
  1. Video
  2. ID : 1
  3. Format : HEVC
  4. Format/Info : High Efficiency Video Coding
  5. Format profile : Main 10@L5@Main
  6. Codec ID : V_MPEGH/ISO/HEVC
  7. Duration : 57 min 4 s
  8. Bit rate : 11.8 Mb/s
  9. Width : 3 840 pixels
  10. Height : 2 160 pixels
  11. Display aspect ratio : 16:9
  12. Frame rate mode : Constant
  13. Frame rate : 23.976 (24000/1001) FPS
  14. Color space : YUV
  15. Chroma subsampling : 4:2:0
  16. Bit depth : 10 bits
  17. Bits/(Pixel*Frame) : 0.059
  18. Stream size : 4.70 GiB (95%)
  19. Default : Yes
  20. Forced : No
  21. Color range : Limited
  22. Color primaries : BT.709
  23. Transfer characteristics : BT.709
  24. Matrix coefficients : BT.709

  25. Audio
  26. ID : 2
  27. Format : E-AC-3
  28. Format/Info : Enhanced AC-3
  29. Commercial name : Dolby Digital Plus
  30. Codec ID : A_EAC3
  31. Duration : 57 min 4 s
  32. Bit rate mode : Constant
  33. Bit rate : 640 kb/s
  34. Channel(s) : 6 channels
  35. Channel layout : L R C LFE Ls Rs
  36. Sampling rate : 48.0 kHz
  37. Frame rate : 31.250 FPS (1536 SPF)
  38. Compression mode : Lossy
  39. Stream size : 261 MiB (5%)
  40. Title : DDP 5.1
  41. Language : English
  42. Service kind : Complete Main
  43. Default : Yes
  44. Forced : No

  45. Text #1
  46. ID : 3
  47. Format : UTF-8
  48. Codec ID : S_TEXT/UTF8
  49. Codec ID/Info : UTF-8 Plain Text
  50. Duration : 52 min 44 s
  51. Bit rate : 18 b/s
  52. Count of elements : 222
  53. Stream size : 7.03 KiB (0%)
  54. Title : FORCED
  55. Language : English
  56. Default : Yes
  57. Forced : Yes

  58. Text #2
  59. ID : 4
  60. Format : UTF-8
  61. Codec ID : S_TEXT/UTF8
  62. Codec ID/Info : UTF-8 Plain Text
  63. Duration : 55 min 38 s
  64. Bit rate : 103 b/s
  65. Count of elements : 1098
  66. Stream size : 42.3 KiB (0%)
  67. Title : SDH
  68. Language : English
  69. Default : No
  70. Forced : No

  71. Text #3
  72. ID : 5
  73. Format : UTF-8
  74. Codec ID : S_TEXT/UTF8
  75. Codec ID/Info : UTF-8 Plain Text
  76. Duration : 55 min 48 s
  77. Bit rate : 89 b/s
  78. Count of elements : 1124
  79. Stream size : 36.5 KiB (0%)
  80. Language : Danish
  81. Default : No
  82. Forced : No

  83. Text #4
  84. ID : 6
  85. Format : UTF-8
  86. Codec ID : S_TEXT/UTF8
  87. Codec ID/Info : UTF-8 Plain Text
  88. Duration : 55 min 49 s
  89. Bit rate : 180 b/s
  90. Count of elements : 1140
  91. Stream size : 73.7 KiB (0%)
  92. Language : Greek
  93. Default : No
  94. Forced : No

  95. Text #5
  96. ID : 7
  97. Format : UTF-8
  98. Codec ID : S_TEXT/UTF8
  99. Codec ID/Info : UTF-8 Plain Text
  100. Duration : 55 min 48 s
  101. Bit rate : 92 b/s
  102. Count of elements : 1112
  103. Stream size : 37.9 KiB (0%)
  104. Language : Spanish
  105. Default : No
  106. Forced : No

  107. Text #6
  108. ID : 8
  109. Format : UTF-8
  110. Codec ID : S_TEXT/UTF8
  111. Codec ID/Info : UTF-8 Plain Text
  112. Duration : 55 min 48 s
  113. Bit rate : 160 b/s
  114. Count of elements : 1141
  115. Stream size : 65.8 KiB (0%)
  116. Language : Arabic
  117. Default : No
  118. Forced : No

  119. Text #7
  120. ID : 9
  121. Format : UTF-8
  122. Codec ID : S_TEXT/UTF8
  123. Codec ID/Info : UTF-8 Plain Text
  124. Duration : 55 min 48 s
  125. Bit rate : 89 b/s
  126. Count of elements : 1131
  127. Stream size : 36.7 KiB (0%)
  128. Language : Spanish
  129. Default : No
  130. Forced : No

  131. Text #8
  132. ID : 10
  133. Format : UTF-8
  134. Codec ID : S_TEXT/UTF8
  135. Codec ID/Info : UTF-8 Plain Text
  136. Duration : 55 min 48 s
  137. Bit rate : 85 b/s
  138. Count of elements : 989
  139. Stream size : 35.1 KiB (0%)
  140. Language : German
  141. Default : No
  142. Forced : No

  143. Text #9
  144. ID : 11
  145. Format : UTF-8
  146. Codec ID : S_TEXT/UTF8
  147. Codec ID/Info : UTF-8 Plain Text
  148. Duration : 55 min 48 s
  149. Bit rate : 85 b/s
  150. Count of elements : 1141
  151. Stream size : 34.8 KiB (0%)
  152. Language : Finnish
  153. Default : No
  154. Forced : No

  155. Text #10
  156. ID : 12
  157. Format : UTF-8
  158. Codec ID : S_TEXT/UTF8
  159. Codec ID/Info : UTF-8 Plain Text
  160. Duration : 55 min 48 s
  161. Bit rate : 102 b/s
  162. Count of elements : 1138
  163. Stream size : 42.0 KiB (0%)
  164. Language : French
  165. Default : No
  166. Forced : No

  167. Text #11
  168. ID : 13
  169. Format : UTF-8
  170. Codec ID : S_TEXT/UTF8
  171. Codec ID/Info : UTF-8 Plain Text
  172. Duration : 55 min 48 s
  173. Bit rate : 92 b/s
  174. Count of elements : 1117
  175. Stream size : 37.8 KiB (0%)
  176. Language : Italian
  177. Default : No
  178. Forced : No

  179. Text #12
  180. ID : 14
  181. Format : UTF-8
  182. Codec ID : S_TEXT/UTF8
  183. Codec ID/Info : UTF-8 Plain Text
  184. Duration : 56 min 50 s
  185. Bit rate : 145 b/s
  186. Count of elements : 1106
  187. Stream size : 60.8 KiB (0%)
  188. Language : Hebrew
  189. Default : No
  190. Forced : No

  191. Text #13
  192. ID : 15
  193. Format : UTF-8
  194. Codec ID : S_TEXT/UTF8
  195. Codec ID/Info : UTF-8 Plain Text
  196. Duration : 55 min 48 s
  197. Bit rate : 84 b/s
  198. Count of elements : 896
  199. Stream size : 34.7 KiB (0%)
  200. Language : Norwegian Bokmal
  201. Default : No
  202. Forced : No

  203. Text #14
  204. ID : 16
  205. Format : UTF-8
  206. Codec ID : S_TEXT/UTF8
  207. Codec ID/Info : UTF-8 Plain Text
  208. Duration : 55 min 49 s
  209. Bit rate : 95 b/s
  210. Count of elements : 1139
  211. Stream size : 39.1 KiB (0%)
  212. Language : Indonesian
  213. Default : No
  214. Forced : No

  215. Text #15
  216. ID : 17
  217. Format : UTF-8
  218. Codec ID : S_TEXT/UTF8
  219. Codec ID/Info : UTF-8 Plain Text
  220. Duration : 56 min 38 s
  221. Bit rate : 101 b/s
  222. Count of elements : 1179
  223. Stream size : 42.2 KiB (0%)
  224. Language : Japanese
  225. Default : No
  226. Forced : No

  227. Text #16
  228. ID : 18
  229. Format : UTF-8
  230. Codec ID : S_TEXT/UTF8
  231. Codec ID/Info : UTF-8 Plain Text
  232. Duration : 55 min 48 s
  233. Bit rate : 108 b/s
  234. Count of elements : 1153
  235. Stream size : 44.5 KiB (0%)
  236. Language : Korean
  237. Default : No
  238. Forced : No

  239. Text #17
  240. ID : 19
  241. Format : UTF-8
  242. Codec ID : S_TEXT/UTF8
  243. Codec ID/Info : UTF-8 Plain Text
  244. Duration : 56 min 39 s
  245. Bit rate : 82 b/s
  246. Count of elements : 1088
  247. Stream size : 34.1 KiB (0%)
  248. Title : Simplified
  249. Language : Chinese
  250. Default : No
  251. Forced : No

  252. Text #18
  253. ID : 20
  254. Format : UTF-8
  255. Codec ID : S_TEXT/UTF8
  256. Codec ID/Info : UTF-8 Plain Text
  257. Duration : 56 min 39 s
  258. Bit rate : 88 b/s
  259. Count of elements : 1131
  260. Stream size : 36.8 KiB (0%)
  261. Title : Traditional
  262. Language : Chinese
  263. Default : No
  264. Forced : No

  265. Text #19
  266. ID : 21
  267. Format : UTF-8
  268. Codec ID : S_TEXT/UTF8
  269. Codec ID/Info : UTF-8 Plain Text
  270. Duration : 56 min 39 s
  271. Bit rate : 95 b/s
  272. Count of elements : 1124
  273. Stream size : 39.6 KiB (0%)
  274. Title : Brasil
  275. Language : Portuguese
  276. Default : No
  277. Forced : No

  278. Text #20
  279. ID : 22
  280. Format : UTF-8
  281. Codec ID : S_TEXT/UTF8
  282. Codec ID/Info : UTF-8 Plain Text
  283. Duration : 55 min 48 s
  284. Bit rate : 92 b/s
  285. Count of elements : 1133
  286. Stream size : 38.0 KiB (0%)
  287. Language : Portuguese
  288. Default : No
  289. Forced : No

  290. Text #21
  291. ID : 23
  292. Format : UTF-8
  293. Codec ID : S_TEXT/UTF8
  294. Codec ID/Info : UTF-8 Plain Text
  295. Duration : 55 min 48 s
  296. Bit rate : 88 b/s
  297. Count of elements : 959
  298. Stream size : 36.3 KiB (0%)
  299. Language : Dutch
  300. Default : No
  301. Forced : No

  302. Text #22
  303. ID : 24
  304. Format : UTF-8
  305. Codec ID : S_TEXT/UTF8
  306. Codec ID/Info : UTF-8 Plain Text
  307. Duration : 56 min 37 s
  308. Bit rate : 92 b/s
  309. Count of elements : 1132
  310. Stream size : 38.4 KiB (0%)
  311. Language : Polish
  312. Default : No
  313. Forced : No

  314. Text #23
  315. ID : 25
  316. Format : UTF-8
  317. Codec ID : S_TEXT/UTF8
  318. Codec ID/Info : UTF-8 Plain Text
  319. Duration : 55 min 48 s
  320. Bit rate : 104 b/s
  321. Count of elements : 1101
  322. Stream size : 42.6 KiB (0%)
  323. Language : Romanian
  324. Default : No
  325. Forced : No

  326. Text #24
  327. ID : 26
  328. Format : UTF-8
  329. Codec ID : S_TEXT/UTF8
  330. Codec ID/Info : UTF-8 Plain Text
  331. Duration : 56 min 39 s
  332. Bit rate : 143 b/s
  333. Count of elements : 1139
  334. Stream size : 59.5 KiB (0%)
  335. Language : Russian
  336. Default : No
  337. Forced : No

  338. Text #25
  339. ID : 27
  340. Format : UTF-8
  341. Codec ID : S_TEXT/UTF8
  342. Codec ID/Info : UTF-8 Plain Text
  343. Duration : 55 min 48 s
  344. Bit rate : 85 b/s
  345. Count of elements : 916
  346. Stream size : 35.0 KiB (0%)
  347. Language : Swedish
  348. Default : No
  349. Forced : No

  350. Text #26
  351. ID : 28
  352. Format : UTF-8
  353. Codec ID : S_TEXT/UTF8
  354. Codec ID/Info : UTF-8 Plain Text
  355. Duration : 55 min 48 s
  356. Bit rate : 245 b/s
  357. Count of elements : 1141
  358. Stream size : 100 KiB (0%)
  359. Language : Thai
  360. Default : No
  361. Forced : No

  362. Text #27
  363. ID : 29
  364. Format : UTF-8
  365. Codec ID : S_TEXT/UTF8
  366. Codec ID/Info : UTF-8 Plain Text
  367. Duration : 55 min 48 s
  368. Bit rate : 87 b/s
  369. Count of elements : 1141
  370. Stream size : 35.8 KiB (0%)
  371. Language : Turkish
  372. Default : No
  373. Forced : No
复制代码

乐坛奇案4k Remastered.Who.Shot.the.Sheriff.2018.2160p.NF.WEB-DL.x265.10bit.SDR.DDP5.1.电影下载

乐坛奇案4k Remastered.Who.Shot.the.Sheriff.2018.2160p.NF.WEB-DL.x265.10bit.SDR.DDP5.1【4.95GB】
[Hao4k]乐坛奇案4k Remastered.Who.Shot.the.Sheriff.2018.2160p.NF.WEB-DL.x265.10bi.torrent (50.13 KB)
回复

使用道具 举报

全部回复13

bonna 发表于 2021-2-3 10:03:56

bonna 沙发

2021-2-3 10:03:56

英文简介。
回复 支持 反对

使用道具 举报

yangly 发表于 2021-2-3 11:25:24

yangly 板凳

2021-2-3 11:25:24

谢谢分享
回复 支持 反对

使用道具 举报

珊瑚坝放风筝 发表于 2021-2-3 12:30:08

珊瑚坝放风筝 地板

2021-2-3 12:30:08

谢谢楼主分享
回复 支持 反对

使用道具 举报

dyczw 发表于 2021-2-3 14:45:38

dyczw 5#

2021-2-3 14:45:38

感谢分享,辛苦了
回复 支持 反对

使用道具 举报

勇往直前168 发表于 2021-2-3 16:52:02

勇往直前168 6#

2021-2-3 16:52:02

又是奇案 谢谢分享
回复 支持 反对

使用道具 举报

xia6909 发表于 2021-2-3 19:22:57

xia6909 7#

2021-2-3 19:22:57


谢谢分享
回复 支持 反对

使用道具 举报

yale 发表于 2021-2-3 20:25:56

yale 8#

2021-2-3 20:25:56

谢谢分享
回复 支持 反对

使用道具 举报

dk30129 发表于 2021-2-4 08:15:47

dk30129 9#

2021-2-4 08:15:47

谢谢分享,顶你!!!
回复 支持 反对

使用道具 举报

勇往直前168 发表于 2021-2-4 11:00:55

勇往直前168 10#

2021-2-4 11:00:55

谢谢  也有中文字幕吗?
回复 支持 反对

使用道具 举报

chuchan1 发表于 2021-2-5 13:28:15

chuchan1 11#

2021-2-5 13:28:15



好资源,谢谢分享!
回复 支持 反对

使用道具 举报

湖广哥 发表于 2021-2-7 23:18:56

湖广哥 12#

2021-2-7 23:18:56

谢谢分享
回复 支持 反对

使用道具 举报

lopopo88 发表于 2021-2-10 07:21:40 Hao4K手机版

lopopo88 13#

2021-2-10 07:21:40

说的应该是雷鬼乐创始人鲍勃·马莲举行和平音乐会遭受枪击的案件。另外,该巨星踢足球时脚指头受伤,不久恶化癌变,英年早逝。
回复 支持 反对

使用道具 举报

andywjhh 发表于 2021-2-16 22:31:10

andywjhh 14#

2021-2-16 22:31:10

辛苦了  感谢分享啊
回复 支持 反对

使用道具 举报

   发表回复

您需要登录后才可以回帖 登录 | 立即注册

返回列表 本版积分规则

  • 在线客服

  • 返回顶部