微博 微信

Hao4K影音

电影频道
电影封面:
片  名: 宇宙时空之旅:未知世界4k
电影分类: 纪录片 
国  家: 美国 
年  代: 2020年
分 辨 率: 4K(3840x2160)
电影格式: MKV|REMUX 
画质标准: 其他 
音质编码: 其他AAC 
电影声道: 5.1声道 
帧数/FPS: 23.976 FPS
电影语言: 英文原版 
资源大小: 17.5 GB
导  演: 安·德鲁扬 / 布兰农·布拉加
豆瓣评分: 9.6 分
中文字幕: -
剧情简介: 《宇宙时空之旅:未知世界》(Cosmos:Possible Worlds)
  在广阔无垠的时空中,有无数个尚待我们探索的世界,和等待我们诉说的故事。本季节目要带我们探索逝去和未来的世界。并带观众认识勇于探索这一切的人。
宇宙时空之旅:未知世界4k Cosmos: Possible Worlds 2020 Season 01 S01.2160p AMZN WEB-DL Ai x265 HEVC 10bit AC3 5.1纪录片美剧信息
  1. Video
  2. ID : 1
  3. Format : HEVC
  4. Format/Info : High Efficiency Video Coding
  5. Format profile : Main [email protected]@Main
  6. Codec ID : V_MPEGH/ISO/HEVC
  7. Duration : 43 min 56 s
  8. Bit rate : 4 001 kb/s
  9. Width : 3 840 pixels
  10. Height : 2 160 pixels
  11. Display aspect ratio : 16:9
  12. Frame rate mode : Constant
  13. Frame rate : 23.976 (24000/1001) FPS
  14. Color space : YUV
  15. Chroma subsampling : 4:2:0
  16. Bit depth : 10 bits
  17. Bits/(Pixel*Frame) : 0.020
  18. Stream size : 1.23 GiB (91%)
  19. Encoding settings : cpuid=1111039 / frame-threads=4 / numa-pools=24 / wpp / no-pmode / no-pme / no-psnr / ssim / log-level=2 / input-csp=1 / input-res=3840x2160 / interlace=0 / total-frames=63201 / level-idc=0 / high-tier=1 / uhd-bd=0 / ref=4 / no-allow-non-conformance / no-repeat-headers / annexb / no-aud / no-hrd / info / hash=0 / no-temporal-layers / open-gop / min-keyint=23 / keyint=250 / gop-lookahead=0 / bframes=8 / b-adapt=2 / b-pyramid / bframe-bias=40 / rc-lookahead=80 / lookahead-slices=4 / scenecut=40 / radl=0 / no-splice / no-intra-refresh / ctu=64 / min-cu-size=8 / no-rect / no-amp / max-tu-size=32 / tu-inter-depth=1 / tu-intra-depth=1 / limit-tu=0 / rdoq-level=2 / dynamic-rd=0.00 / ssim-rd / signhide / no-tskip / nr-intra=0 / nr-inter=0 / constrained-intra / strong-intra-smoothing / max-merge=3 / limit-refs=3 / limit-modes / me=3 / subme=3 / merange=57 / temporal-mvp / no-frame-dup / no-hme / weightp / no-weightb / no-analyze-src-pics / deblock=0:0 / sao / no-sao-non-deblock / rd=4 / selective-sao=4 / early-skip / rskip / no-fast-intra / no-tskip-fast / no-cu-lossless / no-b-intra / splitrd-skip / rdpenalty=0 / psy-rd=2.45 / psy-rdoq=1.50 / no-rd-refine / no-lossless / cbqpoffs=0 / crqpoffs=0 / rc=abr / bitrate=4000 / qcomp=0.60 / qpstep=4 / stats-write=0 / stats-read=2 / cplxblur=20.0 / qblur=0.5 / ipratio=1.40 / pbratio=1.30 / aq-mode=3 / aq-strength=0.40 / cutree / zone-count=0 / no-strict-cbr / qg-size=32 / no-rc-grain / qpmax=69 / qpmin=0 / no-const-vbv / sar=0 / overscan=0 / videoformat=5 / range=0 / colorprim=1 / transfer=1 / colormatrix=1 / chromaloc=0 / display-window=0 / cll=0,0 / min-luma=0 / max-luma=1023 / log2-max-poc-lsb=8 / vui-timing-info / vui-hrd-info / slices=1 / no-opt-qp-pps / no-opt-ref-list-length-pps / multi-pass-opt-rps / scenecut-bias=0.05 / no-opt-cu-delta-qp / no-aq-motion / no-hdr / no-hdr-opt / no-dhdr10-opt / no-idr-recovery-sei / analysis-load / analysis-reuse-level=10 / scale-factor=0 / refine-intra=0 / refine-inter=0 / refine-mv=1 / refine-ctu-distortion=0 / limit-sao / ctu-info=0 / no-lowpass-dct / refine-analysis-type=0 / copy-pic=1 / max-ausize-factor=1.0 / no-dynamic-refine / no-single-sei / no-hevc-aq / no-svt / no-field / qp-adaptation-range=1.00
  20. Default : Yes
  21. Forced : No
  22. Color range : Limited
  23. Color primaries : BT.709
  24. Transfer characteristics : BT.709
  25. Matrix coefficients : BT.709

  26. Audio
  27. ID : 2
  28. Format : AC-3
  29. Format/Info : Audio Coding 3
  30. Mode extension : CM (complete main)
  31. Format settings, Endianness : Big
  32. Codec ID : A_AC3
  33. Duration : 43 min 56 s
  34. Bit rate mode : Constant
  35. Bit rate : 384 kb/s
  36. Channel(s) : 6 channels
  37. Channel positions : Front: L C R, Side: L R, LFE
  38. Sampling rate : 48.0 kHz
  39. Frame rate : 31.250 FPS (1536 spf)
  40. Bit depth : 16 bits
  41. Compression mode : Lossy
  42. Stream size : 121 MiB (9%)
  43. Language : English
  44. Default : No
  45. Forced : No

  46. Subtitle
  47. ID : 3
  48. Format : UTF-8
  49. Codec ID : S_TEXT/UTF8
  50. Codec ID/Info : UTF-8 Plain Text
  51. Duration : 43 min 10 s
  52. Bit rate : 75 b/s
  53. Count of elements : 615
  54. Stream size : 24.0 KiB (0%)
  55. Language : English
  56. Default : No
  57. Forced : No
复制代码

宇宙时空之旅:未知世界4k Cosmos: Possible Worlds 2020 Season 01 S01.2160p AMZN WEB-DL Ai x265 HEVC 10bit AC3 5.1纪录片美剧下载

宇宙时空之旅:未知世界4k Cosmos: Possible Worlds 2020 Season 01 S01.2160p AMZN WEB-DL Ai x265 HEVC 10bit AC3 5.1【17.5 GB】
宇宙时空之旅:未知世界4k.txt (104 Bytes)

评分

参与人数 1H币 +5 收起 理由
hu123456 + 5 继续发这影片

查看全部评分

回复

使用道具 举报

苏默金武 发表于 2021-2-3 20:55:44

苏默金武 推荐

2021-2-3 20:55:44

花落无声 发表于 2021-2-3 16:29
上传不了提示什么啊

可能Microsoft Edge浏览器的问题,换了Google Chrome就好了!!!
回复 支持 反对

使用道具 举报

wmzlhyy 发表于 2021-2-4 08:19:17

wmzlhyy 推荐

2021-2-4 08:19:17

苏默金武 发表于 2021-2-3 20:55
可能Microsoft Edge浏览器的问题,换了Google Chrome就好了!!!

字幕完全不对啊
回复 支持 反对

使用道具 举报

tomcat123 发表于 2021-2-3 11:25:04

tomcat123 地板

2021-2-3 11:25:04

非常感谢,希望这个看的结果会很理想
回复 支持 反对

使用道具 举报

jiujiupi 发表于 2021-2-3 13:43:33

jiujiupi 5#

2021-2-3 13:43:33

这个是新出的吗好像13集,不知道是不是真4K,收藏了看看谢谢。
回复 支持 反对

使用道具 举报

苏默金武 发表于 2021-2-3 15:55:32

苏默金武 6#

2021-2-3 15:55:32

字幕已整理好,但上传不了!!!
回复 支持 反对

使用道具 举报

花落无声 发表于 2021-2-3 16:29:48

花落无声 7#

2021-2-3 16:29:48

苏默金武 发表于 2021-2-3 15:55
字幕已整理好,但上传不了!!!

上传不了提示什么啊
回复 支持 反对

使用道具 举报

power8 发表于 2021-2-3 19:41:58

power8 8#

2021-2-3 19:41:58

非常好的资源
大力支持
回复 支持 反对

使用道具 举报

苏默金武 发表于 2021-2-3 20:54:29

苏默金武 9#

2021-2-3 20:54:29

https://www.hao4k.cn/thread-53885-1-1.html 双语字幕已提供下载,完美匹配!!!
回复 支持 反对

使用道具 举报

wmzlhyy 发表于 2021-2-4 08:40:27

wmzlhyy 10#

2021-2-4 08:40:27

wmzlhyy 发表于 2021-2-4 08:19
字幕完全不对啊

是我搞错了,我下的是2014年版本的13集
回复 支持 反对

使用道具 举报

月光麦田 发表于 2021-2-4 16:50:09

月光麦田 11#

2021-2-4 16:50:09

非常喜欢科教片
回复 支持 反对

使用道具 举报

lywzj238 发表于 2021-2-5 08:44:05

lywzj238 12#

2021-2-5 08:44:05

谢谢分享好电影
回复 支持 反对

使用道具 举报

attf120 发表于 2021-2-5 19:23:07

attf120 13#

2021-2-5 19:23:07

感谢分享
回复 支持 反对

使用道具 举报

lywzj238 发表于 2021-2-6 08:53:11

lywzj238 14#

2021-2-6 08:53:11

谢谢分享好电影
回复 支持 反对

使用道具 举报

zengzzs 发表于 2021-2-6 09:22:17

zengzzs 15#

2021-2-6 09:22:17

支持纪录片,感谢
回复 支持 反对

使用道具 举报

dragon_walk 发表于 2021-2-6 09:25:53

dragon_walk 16#

2021-2-6 09:25:53

最喜欢星空宇宙的纪录片了
回复 支持 反对

使用道具 举报

AIR25 发表于 2021-2-7 21:18:03

AIR25 17#

2021-2-7 21:18:03

比较喜欢这类探索宇宙的纪录片,感谢楼主分享
回复 支持 反对

使用道具 举报

guiguziqin 发表于 2021-2-18 10:57:50

guiguziqin 18#

2021-2-18 10:57:50

感谢分享,特别喜欢这个纪录片
回复 支持 反对

使用道具 举报

   发表回复

您需要登录后才可以回帖 登录 | 立即注册

返回列表 本版积分规则

  • 在线客服

  • 返回顶部