微博 微信

Hao4K影音

电影频道
电影封面:
片  名: 一年生活4k
电影分类: 剧情 爱情片 
国  家: 美国 
年  代: 2020年
分 辨 率: 4K(3840x2160)
电影格式: MKV|REMUX 
画质标准: SDR 
音质编码: Dolby Digital Plus Audio 
电影声道: 5.1声道 
帧数/FPS: 23.976 FPS
电影语言: 英文原版 
资源大小: 8.50 GB
导  演: Mitja Okorn
豆瓣评分: 6.1 分
中文字幕: -
剧情简介: Daryn发现他爱的女孩Isabelle患病,所剩时日不多,彩色的长发也变成了光头。他对她展开了不懈追求,想让她剩下的日子过得充实、快乐。Isabelle一开始是拒绝的,然后……
一年中的生活 / Year in a Life/一年生活4k Life.In.A.Year.2020.2160p.AMZN.WEB-DL.x265.10bit.SDR.DDP5.1.电影信息
  1. Video
  2. ID : 1
  3. Format : HEVC
  4. Format/Info : High Efficiency Video Coding
  5. Format profile : Main@L5@Main
  6. Codec ID : V_MPEGH/ISO/HEVC
  7. Duration : 1 h 47 min
  8. Bit rate : 10.7 Mb/s
  9. Width : 3 840 pixels
  10. Height : 1 600 pixels
  11. Display aspect ratio : 2.40:1
  12. Frame rate mode : Constant
  13. Frame rate : 23.976 (24000/1001) FPS
  14. Standard : NTSC
  15. Color space : YUV
  16. Chroma subsampling : 4:2:0
  17. Bit depth : 8 bits
  18. Bits/(Pixel*Frame) : 0.073
  19. Stream size : 8.02 GiB (94%)
  20. Writing library : x265 2.9_elemental+1-9e0607aa5b6f:[Linux][GCC 4.8.5][64 bit] 8bit+10bit+12bit
  21. Encoding settings : cpuid=1111039 / frame-threads=2 / wpp / no-pmode / no-pme / psnr / ssim / log-level=2 / csv / csv-log-level=2 / input-csp=1 / input-res=3840x1600 / interlace=0 / total-frames=0 / level-idc=50 / high-tier=1 / uhd-bd=0 / ref=5 / no-allow-non-conformance / no-repeat-headers / annexb / no-aud / no-hrd / info / hash=0 / no-temporal-layers / no-open-gop / min-keyint=61 / keyint=120 / gop-lookahead=0 / bframes=8 / b-adapt=2 / b-pyramid / bframe-bias=0 / rc-lookahead=120 / lookahead-slices=4 / scenecut=0 / radl=0 / no-intra-refresh / ctu=64 / min-cu-size=8 / rect / amp / max-tu-size=32 / tu-inter-depth=4 / tu-intra-depth=4 / limit-tu=4 / rdoq-level=2 / dynamic-rd=0.00 / no-ssim-rd / signhide / tskip / nr-intra=100 / nr-inter=600 / no-constrained-intra / strong-intra-smoothing / max-merge=3 / limit-refs=3 / limit-modes / me=3 / subme=3 / merange=57 / temporal-mvp / weightp / weightb / no-analyze-src-pics / deblock=0:0 / no-sao / no-sao-non-deblock / rd=4 / no-early-skip / no-rskip / no-fast-intra / tskip-fast / no-cu-lossless / b-intra / no-splitrd-skip / rdpenalty=0 / psy-rd=4.00 / psy-rdoq=10.00 / no-rd-refine / no-lossless / cbqpoffs=0 / crqpoffs=0 / rc=crf / crf=25.0 / qcomp=0.60 / qpstep=1 / stats-write=0 / stats-read=0 / vbv-maxrate=15000 / vbv-bufsize=20000 / vbv-init=0.9 / crf-max=0.0 / crf-min=0.0 / ipratio=1.10 / pbratio=1.00 / aq-mode=0 / aq-strength=1.50 / no-cutree / zone-count=0 / no-strict-cbr / qg-size=32 / rc-grain / qpmax=69 / qpmin=0 / const-vbv / sar=1 / overscan=0 / videoformat=2 / range=0 / colorprim=1 / transfer=1 / colormatrix=1 / chromaloc=0 / display-window=0 / max-cll=0,0 / min-luma=0 / max-luma=255 / log2-max-poc-lsb=8 / vui-timing-info / vui-hrd-info / slices=1 / opt-qp-pps / no-opt-ref-list-length-pps / no-multi-pass-opt-rps / scenecut-bias=0.05 / no-opt-cu-delta-qp / no-aq-motion / no-hdr / no-hdr-opt / no-dhdr10-opt / no-idr-recovery-sei / analysis-reuse-level=5 / scale-factor=0 / refine-intra=0 / refine-inter=0 / refine-mv=0 / no-limit-sao / ctu-info=0 / no-lowpass-dct / refine-mv-type=0 / copy-pic=1 / max-ausize-factor=1.0 / no-dynamic-refine / no-single-sei
  22. Default : Yes
  23. Forced : No
  24. Color range : Limited
  25. Color primaries : BT.709
  26. Transfer characteristics : BT.709
  27. Matrix coefficients : BT.709

  28. Audio
  29. ID : 2
  30. Format : E-AC-3
  31. Format/Info : Enhanced AC-3
  32. Commercial name : Dolby Digital Plus
  33. Codec ID : A_EAC3
  34. Duration : 1 h 47 min
  35. Bit rate mode : Constant
  36. Bit rate : 640 kb/s
  37. Channel(s) : 6 channels
  38. Channel layout : L R C LFE Ls Rs
  39. Sampling rate : 48.0 kHz
  40. Frame rate : 31.250 FPS (1536 SPF)
  41. Compression mode : Lossy
  42. Stream size : 492 MiB (6%)
  43. Title : DDP 5.1
  44. Language : English
  45. Service kind : Complete Main
  46. Default : Yes
  47. Forced : No

  48. Text
  49. ID : 3
  50. Format : UTF-8
  51. Codec ID : S_TEXT/UTF8
  52. Codec ID/Info : UTF-8 Plain Text
  53. Duration : 1 h 44 min
  54. Bit rate : 77 b/s
  55. Count of elements : 1861
  56. Stream size : 59.3 KiB (0%)
  57. Title : SDH
  58. Language : English
  59. Default : No
  60. Forced : No

  61. Menu
  62. 00:00:00.000 : en:Studio Logo
  63. 00:00:42.000 : en:Scene 2
  64. 00:03:13.000 : en:Scene 3
  65. 00:10:14.000 : en:Scene 4
  66. 00:15:45.000 : en:Scene 5
  67. 00:17:59.000 : en:Scene 6
  68. 00:24:15.000 : en:Scene 7
  69. 00:25:20.000 : en:Scene 8
  70. 00:29:03.000 : en:Scene 9
  71. 00:33:07.000 : en:Scene 10
  72. 00:43:42.000 : en:Scene 11
  73. 00:47:16.000 : en:Scene 12
  74. 00:54:31.000 : en:Scene 13
  75. 01:02:05.000 : en:Scene 14
  76. 01:04:14.000 : en:Scene 15
  77. 01:11:52.000 : en:Scene 16
  78. 01:16:20.000 : en:Scene 17
  79. 01:20:11.000 : en:Scene 18
  80. 01:23:46.000 : en:Scene 19
  81. 01:29:05.000 : en:Scene 20
  82. 01:41:26.000 : en:End Credits
复制代码

一年中的生活 / Year in a Life/一年生活4k Life.In.A.Year.2020.2160p.AMZN.WEB-DL.x265.10bit.SDR.DDP5.1.电影下载

一年生活4k Life.In.A.Year.2020.2160p.AMZN.WEB-DL.x265.10bit.SDR.DDP5.1【8.50 GB】
[Hao4k]一年生活4k Life.In.A.Year.2020.2160p.AMZN.WEB-DL.x265.10bit.SDR.DDP5.1-SW.torrent (43.09 KB)
回复

使用道具 举报

全部回复19

yale 发表于 2021-2-3 21:40:30

yale 沙发

2021-2-3 21:40:30

谢谢分享
回复 支持 反对

使用道具 举报

dyczw 发表于 2021-2-4 06:51:04

dyczw 板凳

2021-2-4 06:51:04

感谢分享,辛苦了
回复 支持 反对

使用道具 举报

lch1164840694 发表于 2021-2-4 08:42:51

lch1164840694 地板

2021-2-4 08:42:51

感谢楼主
回复 支持 反对

使用道具 举报

bbgrnnji 发表于 2021-2-4 09:45:03

bbgrnnji 5#

2021-2-4 09:45:03

这个片子应该很感人
回复 支持 反对

使用道具 举报

panbell 发表于 2021-2-4 09:49:43

panbell 6#

2021-2-4 09:49:43

感谢分享,辛苦了!
回复 支持 反对

使用道具 举报

tonyvan 发表于 2021-2-4 10:49:04

tonyvan 7#

2021-2-4 10:49:04

感谢分享生活片
回复 支持 反对

使用道具 举报

ywf6168 发表于 2021-2-4 10:58:27

ywf6168 8#

2021-2-4 10:58:27

感谢分享,辛苦了
回复 支持 反对

使用道具 举报

highrpmclub 发表于 2021-2-4 12:59:14

highrpmclub 9#

2021-2-4 12:59:14

谢谢楼主分享资源
回复 支持 反对

使用道具 举报

罗洋 发表于 2021-2-5 09:14:33

罗洋 10#

2021-2-5 09:14:33

哇,很个性的女主演员
回复 支持 反对

使用道具 举报

chuchan1 发表于 2021-2-5 13:27:42

chuchan1 11#

2021-2-5 13:27:42



好资源,谢谢分享!
回复 支持 反对

使用道具 举报

329748554 发表于 2021-2-7 10:56:18

329748554 12#

2021-2-7 10:56:18

好资源分享
回复 支持 反对

使用道具 举报

行者1985 发表于 2021-2-7 13:30:39

行者1985 13#

2021-2-7 13:30:39


感谢分享,辛苦了
回复 支持 反对

使用道具 举报

gk9588 发表于 2021-2-7 16:44:46

gk9588 14#

2021-2-7 16:44:46

感谢,支持一下新电影。不错。
回复 支持 反对

使用道具 举报

mmmmike 发表于 2021-2-14 00:14:26

mmmmike 15#

2021-2-14 00:14:26

新春快乐!
回复 支持 反对

使用道具 举报

andywjhh 发表于 2021-2-16 22:30:40

andywjhh 16#

2021-2-16 22:30:40

感谢分享,辛苦了
回复 支持 反对

使用道具 举报

qqlyg 发表于 2021-2-19 14:51:27

qqlyg 17#

2021-2-19 14:51:27


非常感谢分享!
回复 支持 反对

使用道具 举报

nlxw2003 发表于 2021-2-21 14:27:06

nlxw2003 18#

2021-2-21 14:27:06

非常感谢分享!
回复 支持 反对

使用道具 举报

   发表回复

您需要登录后才可以回帖 登录 | 立即注册

返回列表 本版积分规则

  • 在线客服

  • 返回顶部