微博 微信

Hao4K影音

[美剧] 魔法俏佳人4k Fate.The.Winx.Saga.S01.2160p.美剧下载

13 小时前 38118 7 |只看大图 回帖奖励 |倒序浏览 |阅读模式

大红色 楼主

2021-2-4 14:29:53

电视剧频道
电视剧封面:
电视剧名: 魔法俏佳人4k
年  代: 2021  
国  家: 美国
类  别: 奇幻 
语  言: 英语
字  幕: 英文原版
上映日期: 2021-01-22
文件格式: mkv    
视频效果: 4K(3840x2160)    
资源大小: 31.24 GB
片  长: 53 分钟
导  演: Hannah Quinn / 史蒂芬·伍尔芬登 / 丽莎·詹姆斯·拉尔森
剧情简介: 《天命:魔法俏佳人传奇》讲述了五名仙子在魔法仙境的魔法寄宿学校艾菲城学院的成长之旅。在那里,她们必须学会掌控自己的力量,同时还要应对爱情、竞争对手以及会威胁她们生命的怪物。《天命:魔法俏佳人传奇》由布赖恩·扬(《吸血鬼日记》)担任创剧人,是根据伊齐奥·斯特拉菲的意大利动画剧集《魔法俏佳人》改编的真人版。
天命:魔法俏佳人传奇 / 魔法俏佳人 真人版 / 仙女学院 真人版 / Fate:魔法俏佳人传奇(台) / Fate:魔法学园传奇(港) / Fate: The Winx Club Saga / Winx Club/魔法俏佳人4k Fate.The.Winx.Saga.S01.2160p.NF.WEBRip.x265.10bit.HDR.DDP5.1.Atmos.美剧信息
  1. Video
  2. ID : 1
  3. Format : HEVC
  4. Format/Info : High Efficiency Video Coding
  5. Format profile : Main 10@L5.1@High
  6. HDR format : SMPTE ST 2086, HDR10 compatible
  7. Codec ID : V_MPEGH/ISO/HEVC
  8. Duration : 52 min 10 s
  9. Bit rate : 17.0 Mb/s
  10. Width : 3 840 pixels
  11. Height : 1 920 pixels
  12. Display aspect ratio : 2.000
  13. Frame rate mode : Constant
  14. Frame rate : 24.000 FPS
  15. Color space : YUV
  16. Chroma subsampling : 4:2:0 (Type 2)
  17. Bit depth : 10 bits
  18. Bits/(Pixel*Frame) : 0.096
  19. Stream size : 6.18 GiB (96%)
  20. Writing library : x265 3.4+26-g83e2d7fb0:[Windows][GCC 9.3.0][64 bit] 10bit
  21. Encoding settings : cpuid=1111039 / frame-threads=4 / numa-pools=28 / wpp / no-pmode / no-pme / no-psnr / no-ssim / log-level=2 / input-csp=1 / input-res=3840x1920 / interlace=0 / total-frames=0 / level-idc=51 / high-tier=1 / uhd-bd=0 / ref=4 / no-allow-non-conformance / repeat-headers / annexb / no-aud / no-hrd / info / hash=0 / no-temporal-layers / no-open-gop / min-keyint=24 / keyint=250 / gop-lookahead=0 / bframes=3 / b-adapt=2 / b-pyramid / bframe-bias=0 / rc-lookahead=20 / lookahead-slices=8 / scenecut=40 / hist-scenecut=0 / radl=0 / no-splice / no-intra-refresh / ctu=64 / min-cu-size=8 / no-rect / no-amp / max-tu-size=32 / tu-inter-depth=1 / tu-intra-depth=1 / limit-tu=0 / rdoq-level=0 / dynamic-rd=0.00 / no-ssim-rd / signhide / no-tskip / nr-intra=0 / nr-inter=0 / no-constrained-intra / no-strong-intra-smoothing / max-merge=3 / limit-refs=1 / no-limit-modes / me=1 / subme=2 / merange=57 / temporal-mvp / no-frame-dup / no-hme / weightp / no-weightb / no-analyze-src-pics / deblock=-3:-3 / no-sao / no-sao-non-deblock / rd=3 / selective-sao=0 / early-skip / rskip / no-fast-intra / no-tskip-fast / no-cu-lossless / b-intra / no-splitrd-skip / rdpenalty=0 / psy-rd=2.00 / psy-rdoq=0.00 / no-rd-refine / no-lossless / cbqpoffs=0 / crqpoffs=0 / rc=crf / crf=17.0 / qcomp=0.60 / qpstep=4 / stats-write=0 / stats-read=0 / vbv-maxrate=160000 / vbv-bufsize=160000 / vbv-init=0.9 / min-vbv-fullness=50.0 / max-vbv-fullness=80.0 / crf-max=0.0 / crf-min=0.0 / ipratio=1.40 / pbratio=1.30 / aq-mode=2 / aq-strength=1.00 / no-cutree / zone-count=0 / no-strict-cbr / qg-size=32 / no-rc-grain / qpmax=69 / qpmin=0 / no-const-vbv / sar=0 / overscan=0 / videoformat=5 / range=0 / colorprim=9 / transfer=16 / colormatrix=9 / chromaloc=1 / chromaloc-top=2 / chromaloc-bottom=2 / display-window=0 / master-display=G(13250,34500)B(7500,3000)R(34000,16000)WP(15635,16450)L(10000000,1) / cll=1077,164 / min-luma=0 / max-luma=1023 / log2-max-poc-lsb=8 / vui-timing-info / vui-hrd-info / slices=1 / no-opt-qp-pps / no-opt-ref-list-length-pps / no-multi-pass-opt-rps / scenecut-bias=0.05 / hist-threshold=0.03 / no-opt-cu-delta-qp / no-aq-motion / hdr10 / hdr10-opt / no-dhdr10-opt / no-idr-recovery-sei / analysis-reuse-level=0 / analysis-save-reuse-level=0 / analysis-load-reuse-level=0 / scale-factor=0 / refine-intra=0 / refine-inter=0 / refine-mv=1 / refine-ctu-distortion=0 / no-limit-sao / ctu-info=0 / no-lowpass-dct / refine-analysis-type=0 / copy-pic=1 / max-ausize-factor=1.0 / no-dynamic-refine / no-single-sei / no-hevc-aq / no-svt / no-field / qp-adaptation-range=1.00 / no-scenecut-aware-qpconformance-window-offsets / right=0 / bottom=0 / decoder-max-rate=0 / no-vbv-live-multi-pass
  22. Language : English
  23. Default : Yes
  24. Forced : No
  25. Color range : Limited
  26. Color primaries : BT.2020
  27. Transfer characteristics : PQ
  28. Matrix coefficients : BT.2020 non-constant
  29. Mastering display color primaries : Display P3
  30. Mastering display luminance : min: 0.0001 cd/m2, max: 1000 cd/m2
  31. Maximum Content Light Level : 1077 cd/m2
  32. Maximum Frame-Average Light Level : 164 cd/m2

  33. Audio
  34. ID : 2
  35. Format : E-AC-3 JOC
  36. Format/Info : Enhanced AC-3 with Joint Object Coding
  37. Commercial name : Dolby Digital Plus with Dolby Atmos
  38. Codec ID : A_EAC3
  39. Duration : 53 min 42 s
  40. Bit rate mode : Constant
  41. Bit rate : 768 kb/s
  42. Channel(s) : 6 channels
  43. Channel layout : L R C LFE Ls Rs
  44. Sampling rate : 48.0 kHz
  45. Frame rate : 31.250 FPS (1536 SPF)
  46. Compression mode : Lossy
  47. Delay relative to video : 12 ms
  48. Stream size : 295 MiB (4%)
  49. Title : ENG E-AC3 5.1 768kbit ATMOS
  50. Language : English
  51. Service kind : Complete Main
  52. Default : No
  53. Forced : No
  54. Complexity index : 16
  55. Number of dynamic objects : 15
  56. Bed channel count : 1 channel
  57. Bed channel configuration : LFE

  58. Text
  59. ID : 3
  60. Format : UTF-8
  61. Codec ID : S_TEXT/UTF8
  62. Codec ID/Info : UTF-8 Plain Text
  63. Duration : 51 min 56 s
  64. Bit rate : 72 b/s
  65. Count of elements : 819
  66. Stream size : 27.5 KiB (0%)
  67. Language : English
  68. Default : No
  69. Forced : No
复制代码

天命:魔法俏佳人传奇 / 魔法俏佳人 真人版 / 仙女学院 真人版 / Fate:魔法俏佳人传奇(台) / Fate:魔法学园传奇(港) / Fate: The Winx Club Saga / Winx Club/魔法俏佳人4k Fate.The.Winx.Saga.S01.2160p.NF.WEBRip.x265.10bit.HDR.DDP5.1.Atmos.美剧下载

魔法俏佳人4k Fate.The.Winx.Saga.S01.2160p.NF.WEBRip.x265.10bit.HDR.DDP5.1.Atmos【31.24 GB】
[Hao4k]魔法俏佳人4k Fate.The.Winx.Saga.S01.2160p.NF.WEBRip.x265.10bit.HDR.DDP5.1.torrent (79.1 KB)
回复

使用道具 举报

全部回复7

世界之巅1217 发表于 2021-2-4 14:38:01

世界之巅1217 沙发

2021-2-4 14:38:01

感谢分享
回复 支持 反对

使用道具 举报

新起点2017 发表于 2021-2-5 09:36:39

新起点2017 板凳

2021-2-5 09:36:39

豆瓣评分5.3,不是很高啊,但是IMDB却是7.0的分数,算是很高了。
回复 支持 反对

使用道具 举报

行者1985 发表于 2021-2-6 06:41:29

行者1985 地板

2021-2-6 06:41:29

好片子  谢谢分享。。
回复 支持 反对

使用道具 举报

Makoto8023 发表于 2021-2-6 18:05:59

Makoto8023 5#

2021-2-6 18:05:59

谢谢分享
回复 支持 反对

使用道具 举报

再没有冰王子 发表于 2021-2-8 23:42:57

再没有冰王子 6#

2021-2-8 23:42:57

全网都没找到字幕...
回复 支持 反对

使用道具 举报

独舞未央 发表于 2021-2-12 21:51:17

独舞未央 7#

2021-2-12 21:51:17

哪位大神给推荐一个字幕
回复 支持 反对

使用道具 举报

lanhai123 发表于 13 小时前

lanhai123 8#

13 小时前

豆瓣评分5.3,不是很高啊
回复 支持 反对

使用道具 举报

   发表回复

您需要登录后才可以回帖 登录 | 立即注册

返回列表 本版积分规则

:
白银玩家
:
未填写

主题

帖子

积分995

图文推荐

  • 杰士The Sixes音箱使用评测分享

    杰士The Fives 在我试用了The Fives之后,有网

  • 期待引进《无依之地》

    《无依之地》,导演赵婷,凭借《无依之地》获得第

  • Yuran搞到手的、十大新奇UHD BD影碟之五(

    (自习心得,原创不易,咱亲自拍的照片,都加了水

  • 小米电视4A50寸不支持HDR

    小米电视不支持HDR可以通过外接播放器实现HDR效果

  • Yuran搞到手的、十大新奇UHD BD影碟之二(

    本人家庭影院的器材升级,以及调测图证,都在前篇

  • 在线客服

  • 返回顶部