微博 微信

Hao4K影音

电影频道
电影封面:
片  名: 早安越南4k
电影分类: 战争 剧情 喜剧 
国  家: 美国 
年  代: 80年代
分 辨 率: 4K(3840x2160)
电影格式: MKV|REMUX 
画质标准: 其他 
音质编码: 其他AAC 
电影声道: 5.1声道 
帧数/FPS: 23.976 FPS
电影语言: 英文原版 
资源大小: 5.5 GB
导  演: 巴瑞·莱文森
豆瓣评分: 8.0 分
中文字幕: /thread-53956-1-1.html
剧情简介:  1965年西贡越战,死气沉沉的军方广播电台由于新DJ艾德里安·克绕劳尔(罗宾·威廉姆斯 Robin Williams饰)的到来,而突然变得生气勃勃。艾德里安每天以妙语如珠的风格主持早晨广播节目,幽默风趣。他的节目得到了士兵们的热烈欢迎。后来他还深入到了越南的民间生活,渐渐喜欢上了这个国家。然而他在节目中发表的跟军方宣传相抵触的言论,却使艾德里安遭到黯然下台的命运。
  由知名奥斯卡获奖导演巴里·莱文森执导的影片《早安越南》,根据一位电台主持人当年在越南的亲身经历撰写而成。影片以黑色幽默的轻喜剧形式,来反映越战这场残酷的战争。影片更以多首六十年代经典的流行歌曲,唤起了观众深深的共鸣与怀旧情绪。罗宾·威廉斯凭借本片一举获得1988年第60届奥斯卡金像奖最佳男主角提名及1988年第45届金球奖电影类-音乐喜剧类最佳男主角等多项大奖。
早安,越南/早安越南4k Good Morning Vietnam 1987 2160p  BluRay AI x265 HEVC 10bit AC3 5.1电影信息
  1. Video
  2. ID : 1
  3. Format : HEVC
  4. Format/Info : High Efficiency Video Coding
  5. Format profile : Main @Main
  6. Codec ID : V_MPEGH/ISO/HEVC
  7. Duration : 2 h 1 min
  8. Bit rate : 6 000 kb/s
  9. Width : 3 840 pixels
  10. Height : 2 080 pixels
  11. Display aspect ratio : 1.85:1
  12. Frame rate mode : Constant
  13. Frame rate : 23.976 (24000/1001) FPS
  14. Color space : YUV
  15. Chroma subsampling : 4:2:0
  16. Bit depth : 10 bits
  17. Bits/(Pixel*Frame) : 0.031
  18. Stream size : 5.10 GiB (93%)
  19. Writing library : x265 3.2+9-971180b100f8:[Windows][GCC 9.2.0][64 bit] 10bit
  20. Encoding settings : cpuid=1111039 / frame-threads=3 / numa-pools=12 / wpp / no-pmode / no-pme / no-psnr / ssim / log-level=2 / input-csp=1 / input-res=3840x2080 / interlace=0 / total-frames=174977 / level-idc=0 / high-tier=1 / uhd-bd=0 / ref=4 / no-allow-non-conformance / no-repeat-headers / annexb / no-aud / no-hrd / info / hash=0 / no-temporal-layers / open-gop / min-keyint=23 / keyint=250 / gop-lookahead=0 / bframes=8 / b-adapt=2 / b-pyramid / bframe-bias=40 / rc-lookahead=80 / lookahead-slices=4 / scenecut=40 / radl=0 / no-splice / no-intra-refresh / ctu=64 / min-cu-size=8 / rect / no-amp / max-tu-size=32 / tu-inter-depth=1 / tu-intra-depth=1 / limit-tu=0 / rdoq-level=2 / dynamic-rd=0.00 / ssim-rd / signhide / no-tskip / nr-intra=0 / nr-inter=0 / constrained-intra / strong-intra-smoothing / max-merge=3 / limit-refs=3 / limit-modes / me=3 / subme=3 / merange=57 / temporal-mvp / no-frame-dup / no-hme / weightp / no-weightb / no-analyze-src-pics / deblock=-3:-3 / sao / no-sao-non-deblock / rd=4 / selective-sao=4 / early-skip / rskip / no-fast-intra / no-tskip-fast / no-cu-lossless / no-b-intra / splitrd-skip / rdpenalty=0 / psy-rd=2.45 / psy-rdoq=1.50 / no-rd-refine / no-lossless / cbqpoffs=0 / crqpoffs=0 / rc=abr / bitrate=6000 / qcomp=0.60 / qpstep=4 / stats-write=0 / stats-read=2 / cplxblur=20.0 / qblur=0.5 / ipratio=1.40 / pbratio=1.30 / aq-mode=3 / aq-strength=0.40 / cutree / zone-count=0 / no-strict-cbr / qg-size=32 / no-rc-grain / qpmax=69 / qpmin=0 / no-const-vbv / sar=0 / overscan=0 / videoformat=5 / range=0 / colorprim=2 / transfer=2 / colormatrix=2 / chromaloc=0 / display-window=0 / cll=0,0 / min-luma=0 / max-luma=1023 / log2-max-poc-lsb=8 / vui-timing-info / vui-hrd-info / slices=1 / no-opt-qp-pps / no-opt-ref-list-length-pps / multi-pass-opt-rps / scenecut-bias=0.05 / no-opt-cu-delta-qp / no-aq-motion / no-hdr / no-hdr-opt / no-dhdr10-opt / no-idr-recovery-sei / analysis-load / analysis-reuse-level=10 / scale-factor=0 / refine-intra=0 / refine-inter=0 / refine-mv=1 / refine-ctu-distortion=0 / limit-sao / ctu-info=0 / no-lowpass-dct / refine-analysis-type=0 / copy-pic=1 / max-ausize-factor=1.0 / no-dynamic-refine / no-single-sei / no-hevc-aq / no-svt / no-field / qp-adaptation-range=1.00
  21. Default : Yes
  22. Forced : No

  23. Audio
  24. ID : 2
  25. Format : AC-3
  26. Format/Info : Audio Coding 3
  27. Mode extension : CM (complete main)
  28. Format settings, Endianness : Big
  29. Codec ID : A_AC3
  30. Duration : 2 h 1 min
  31. Bit rate mode : Constant
  32. Bit rate : 448 kb/s
  33. Channel(s) : 6 channels
  34. Channel positions : Front: L C R, Side: L R, LFE
  35. Sampling rate : 48.0 kHz
  36. Frame rate : 31.250 FPS (1536 spf)
  37. Bit depth : 16 bits
  38. Compression mode : Lossy
  39. Stream size : 390 MiB (7%)
  40. Language : English
  41. Default : No
  42. Forced : No

  43. Subtitle #1
  44. ID : 3
  45. Format : UTF-8
  46. Codec ID : S_TEXT/UTF8
  47. Codec ID/Info : UTF-8 Plain Text
  48. Duration : 1 h 57 min
  49. Bit rate : 86 b/s
  50. Count of elements : 1816
  51. Stream size : 74.8 KiB (0%)
  52. Language : English
  53. Default : No
  54. Forced : No

  55. Subtitle #2
  56. ID : 4
  57. Format : VobSub
  58. Muxing mode : zlib
  59. Codec ID : S_VOBSUB
  60. Codec ID/Info : Picture based subtitle format used on DVDs
  61. Duration : 1 h 57 min
  62. Bit rate : 10.8 kb/s
  63. Count of elements : 1480
  64. Stream size : 9.13 MiB (0%)
  65. Language : French
  66. Default : No
  67. Forced : No

  68. Subtitle #3
  69. ID : 5
  70. Format : VobSub
  71. Muxing mode : zlib
  72. Codec ID : S_VOBSUB
  73. Codec ID/Info : Picture based subtitle format used on DVDs
  74. Duration : 1 h 57 min
  75. Bit rate : 11.3 kb/s
  76. Count of elements : 1634
  77. Stream size : 9.54 MiB (0%)
  78. Language : German
  79. Default : No
  80. Forced : No

  81. Subtitle #4
  82. ID : 6
  83. Format : UTF-8
  84. Codec ID : S_TEXT/UTF8
  85. Codec ID/Info : UTF-8 Plain Text
  86. Duration : 1 h 58 min
  87. Bit rate : 134 b/s
  88. Count of elements : 1807
  89. Stream size : 117 KiB (0%)
  90. Language : Arabic
  91. Default : No
  92. Forced : No

  93. Subtitle #5
  94. ID : 7
  95. Format : UTF-8
  96. Codec ID : S_TEXT/UTF8
  97. Codec ID/Info : UTF-8 Plain Text
  98. Duration : 1 h 57 min
  99. Bit rate : 57 b/s
  100. Count of elements : 1030
  101. Stream size : 49.5 KiB (0%)
  102. Language : Danish
  103. Default : No
  104. Forced : No

  105. Subtitle #6
  106. ID : 8
  107. Format : UTF-8
  108. Codec ID : S_TEXT/UTF8
  109. Codec ID/Info : UTF-8 Plain Text
  110. Duration : 1 h 57 min
  111. Bit rate : 57 b/s
  112. Count of elements : 971
  113. Stream size : 49.6 KiB (0%)
  114. Language : Finnish
  115. Default : No
  116. Forced : No

  117. Subtitle #7
  118. ID : 9
  119. Format : UTF-8
  120. Codec ID : S_TEXT/UTF8
  121. Codec ID/Info : UTF-8 Plain Text
  122. Duration : 1 h 57 min
  123. Bit rate : 47 b/s
  124. Count of elements : 972
  125. Stream size : 41.2 KiB (0%)
  126. Language : Norwegian Bokmal
  127. Default : No
  128. Forced : No

  129. Subtitle #8
  130. ID : 10
  131. Format : UTF-8
  132. Codec ID : S_TEXT/UTF8
  133. Codec ID/Info : UTF-8 Plain Text
  134. Duration : 1 h 57 min
  135. Bit rate : 52 b/s
  136. Count of elements : 971
  137. Stream size : 45.2 KiB (0%)
  138. Language : Swedish
  139. Default : No
  140. Forced : No

  141. Subtitle #9
  142. ID : 11
  143. Format : UTF-8
  144. Codec ID : S_TEXT/UTF8
  145. Codec ID/Info : UTF-8 Plain Text
  146. Duration : 1 h 58 min
  147. Bit rate : 140 b/s
  148. Count of elements : 1781
  149. Stream size : 122 KiB (0%)
  150. Language : Thai
  151. Default : No
  152. Forced : No

  153. Subtitle #10
  154. ID : 12
  155. Format : UTF-8
  156. Codec ID : S_TEXT/UTF8
  157. Codec ID/Info : UTF-8 Plain Text
  158. Duration : 1 h 58 min
  159. Bit rate : 103 b/s
  160. Count of elements : 1520
  161. Stream size : 90.1 KiB (0%)
  162. Language : Vietnamese
  163. Default : No
  164. Forced : No

  165. Menu
  166. 00:00:00.000 : :Opening Titles/Welcome to Saigon
  167. 00:08:56.411 : :Unauthorized Programming
  168. 00:23:21.817 : :English Class
  169. 00:32:51.720 : :Brawl at Jimmy Wah's
  170. 00:40:03.401 : :A Date With Trinh
  171. 00:52:21.430 : :Unofficial News
  172. 01:07:00.308 : :Polkas or No Polkas
  173. 01:18:20.029 : :Reluctantly Reinstated
  174. 01:30:37.932 : :Friends and Enemies
  175. 01:48:43.016 : :Goodbye, Vietnam/End Credits
复制代码

早安,越南/早安越南4k Good Morning Vietnam 1987 2160p  BluRay AI x265 HEVC 10bit AC3 5.1电影下载

早安越南4k Good Morning Vietnam 1987 2160p  BluRay AI x265 HEVC 10bit AC3 5.1【5.5GB】
早安越南4k.txt (90 Bytes)
回复

使用道具 举报

全部回复6

农夫舅舅 发表于 2021-2-5 12:24:33 Hao4K手机版

农夫舅舅 沙发

2021-2-5 12:24:33

好滴好滴
坐沙发看电影
回复 支持 反对

使用道具 举报

笑傲江湖K 发表于 2021-2-5 14:02:51

笑傲江湖K 板凳

2021-2-5 14:02:51

感谢分享
回复 支持 反对

使用道具 举报

nbnbtop 发表于 2021-2-5 14:28:57

nbnbtop 地板

2021-2-5 14:28:57

感谢分享,很老的电影
回复 支持 反对

使用道具 举报

苏默金武 发表于 2021-2-5 21:21:25

苏默金武 5#

2021-2-5 21:21:25

https://www.hao4k.cn/thread-53956-1-1.html 双语字幕已提供下载!!!
回复 支持 反对

使用道具 举报

zocke 发表于 2021-2-7 19:11:56

zocke 6#

2021-2-7 19:11:56

很老的电影
回复 支持 反对

使用道具 举报

yzr00888 发表于 2021-2-13 12:54:52

yzr00888 7#

2021-2-13 12:54:52

罗宾威廉姆斯!
回复 支持 反对

使用道具 举报

   发表回复

您需要登录后才可以回帖 登录 | 立即注册

返回列表 本版积分规则

  • 在线客服

  • 返回顶部