微博 微信

Hao4K影音

[美剧] 史努比秀4k The.Snoopy.Show.S01.美剧下载

2021-2-21 12:37:29 14744 6 |只看大图 回帖奖励 |倒序浏览 |阅读模式

大红色 楼主

2021-2-5 21:23:47

电视剧频道
电视剧封面:
电视剧名: 史努比秀4k
年  代: 2021  
国  家: 美国
类  别: 动作 冒险 喜剧 动画 
语  言: 英语
字  幕: 英文原版
上映日期: 2021-02-05
文件格式: mkv    
视频效果: 4K(3840x2160)    
资源大小: 22.20 GB
片  长: 7 分钟
导  演: 海蒂·克拉格滕 / 伊森·普焦托 / Terry McGurrin / 罗伯特·丁克勒 / Isabella Leo / Wyatt White / Christian Dal Dosso / Johnathan Phillp Martin / Isis Moore / Holly Gorski / Johnathan Martin
剧情简介: 全球最具知名度的狗狗,即将成为镁光灯焦点!现在就和这只喜欢开心跳舞、想飞上蓝天和充满梦想的比格犬,还有它最好的朋友糊涂塌客,以及《花生漫画》的其他伙伴一起展开新的冒险吧!
史诺比开骚(港) / 史努比欢乐秀(台)/史努比秀4k The.Snoopy.Show.S01.2160p.ATVP.WEB-DL.x265.10bit.HDR.DD5.1.美剧信息
  1. Video
  2. ID : 1
  3. Format : HEVC
  4. Format/Info : High Efficiency Video Coding
  5. Format profile : Main 10@L5@High
  6. HDR format : SMPTE ST 2086, HDR10 compatible
  7. Codec ID : V_MPEGH/ISO/HEVC
  8. Duration : 22 min 31 s
  9. Bit rate : 23.8 Mb/s
  10. Width : 3 840 pixels
  11. Height : 2 160 pixels
  12. Display aspect ratio : 16:9
  13. Frame rate mode : Constant
  14. Frame rate : 23.976 (24000/1001) FPS
  15. Color space : YUV
  16. Chroma subsampling : 4:2:0 (Type 2)
  17. Bit depth : 10 bits
  18. Bits/(Pixel*Frame) : 0.119
  19. Stream size : 3.74 GiB (98%)
  20. Language : English
  21. Default : Yes
  22. Forced : No
  23. Color range : Limited
  24. Color primaries : BT.2020
  25. Transfer characteristics : PQ
  26. Matrix coefficients : BT.2020 non-constant
  27. Mastering display color primaries : Display P3
  28. Mastering display luminance : min: 0.0050 cd/m2, max: 1000 cd/m2
  29. Maximum Content Light Level : 493 cd/m2
  30. Maximum Frame-Average Light Level : 200 cd/m2

  31. Audio
  32. ID : 2
  33. Format : AC-3
  34. Format/Info : Audio Coding 3
  35. Commercial name : Dolby Digital
  36. Codec ID : A_AC3
  37. Duration : 22 min 31 s
  38. Bit rate mode : Constant
  39. Bit rate : 384 kb/s
  40. Channel(s) : 6 channels
  41. Channel layout : L R C LFE Ls Rs
  42. Sampling rate : 48.0 kHz
  43. Frame rate : 31.250 FPS (1536 SPF)
  44. Compression mode : Lossy
  45. Stream size : 61.9 MiB (2%)
  46. Language : English
  47. Service kind : Complete Main
  48. Default : Yes
  49. Forced : No

  50. Text #1
  51. ID : 3
  52. Format : UTF-8
  53. Codec ID : S_TEXT/UTF8
  54. Codec ID/Info : UTF-8 Plain Text
  55. Duration : 21 min 36 s
  56. Bit rate : 38 b/s
  57. Count of elements : 181
  58. Stream size : 6.04 KiB (0%)
  59. Title : English
  60. Language : English
  61. Default : No
  62. Forced : No

  63. Text #2
  64. ID : 4
  65. Format : UTF-8
  66. Codec ID : S_TEXT/UTF8
  67. Codec ID/Info : UTF-8 Plain Text
  68. Duration : 21 min 36 s
  69. Bit rate : 58 b/s
  70. Count of elements : 382
  71. Stream size : 9.24 KiB (0%)
  72. Title : English (SDH)
  73. Language : English
  74. Default : No
  75. Forced : No

  76. Text #3
  77. ID : 5
  78. Format : UTF-8
  79. Codec ID : S_TEXT/UTF8
  80. Codec ID/Info : UTF-8 Plain Text
  81. Duration : 22 min 13 s
  82. Bit rate : 52 b/s
  83. Count of elements : 182
  84. Stream size : 8.61 KiB (0%)
  85. Title : العربية
  86. Language : Arabic
  87. Default : No
  88. Forced : No

  89. Text #4
  90. ID : 6
  91. Format : UTF-8
  92. Codec ID : S_TEXT/UTF8
  93. Codec ID/Info : UTF-8 Plain Text
  94. Duration : 22 min 8 s
  95. Bit rate : 57 b/s
  96. Count of elements : 180
  97. Stream size : 9.32 KiB (0%)
  98. Title : български
  99. Language : Bulgarian
  100. Default : No
  101. Forced : No

  102. Text #5
  103. ID : 7
  104. Format : UTF-8
  105. Codec ID : S_TEXT/UTF8
  106. Codec ID/Info : UTF-8 Plain Text
  107. Duration : 22 min 13 s
  108. Bit rate : 36 b/s
  109. Count of elements : 185
  110. Stream size : 5.86 KiB (0%)
  111. Title : Čeština
  112. Language : Czech
  113. Default : No
  114. Forced : No

  115. Text #6
  116. ID : 8
  117. Format : UTF-8
  118. Codec ID : S_TEXT/UTF8
  119. Codec ID/Info : UTF-8 Plain Text
  120. Duration : 22 min 13 s
  121. Bit rate : 37 b/s
  122. Count of elements : 180
  123. Stream size : 6.09 KiB (0%)
  124. Title : dansk
  125. Language : Danish
  126. Default : No
  127. Forced : No

  128. Text #7
  129. ID : 9
  130. Format : UTF-8
  131. Codec ID : S_TEXT/UTF8
  132. Codec ID/Info : UTF-8 Plain Text
  133. Duration : 21 min 45 s
  134. Bit rate : 41 b/s
  135. Count of elements : 199
  136. Stream size : 6.67 KiB (0%)
  137. Title : Deutsch
  138. Language : German
  139. Default : No
  140. Forced : No

  141. Text #8
  142. ID : 10
  143. Format : UTF-8
  144. Codec ID : S_TEXT/UTF8
  145. Codec ID/Info : UTF-8 Plain Text
  146. Duration : 22 min 13 s
  147. Bit rate : 63 b/s
  148. Count of elements : 181
  149. Stream size : 10.4 KiB (0%)
  150. Title : Ελληνικά
  151. Language : Greek
  152. Default : No
  153. Forced : No

  154. Text #9
  155. ID : 11
  156. Format : UTF-8
  157. Codec ID : S_TEXT/UTF8
  158. Codec ID/Info : UTF-8 Plain Text
  159. Duration : 22 min 12 s
  160. Bit rate : 40 b/s
  161. Count of elements : 186
  162. Stream size : 6.53 KiB (0%)
  163. Title : Español (España)
  164. Language : Spanish
  165. Default : No
  166. Forced : No

  167. Text #10
  168. ID : 12
  169. Format : UTF-8
  170. Codec ID : S_TEXT/UTF8
  171. Codec ID/Info : UTF-8 Plain Text
  172. Duration : 22 min 13 s
  173. Bit rate : 38 b/s
  174. Count of elements : 183
  175. Stream size : 6.29 KiB (0%)
  176. Title : Español (Latinoamérica)
  177. Language : Spanish
  178. Default : No
  179. Forced : No
复制代码

史诺比开骚(港) / 史努比欢乐秀(台)/史努比秀4k The.Snoopy.Show.S01.2160p.ATVP.WEB-DL.x265.10bit.HDR.DD5.1.美剧下载

史努比秀4k The.Snoopy.Show.S01.2160p.ATVP.WEB-DL.x265.10bit.HDR.DD5.1【22.20 GB】
[Hao4k]史努比秀4k The.Snoopy.Show.S01.2160p.ATVP.WEB-DL.x265.10bit.HDR.DD5.1-KOG.torrent (56.45 KB)
回复

使用道具 举报

全部回复6

daishuxuan 发表于 2021-2-5 22:05:56

daishuxuan 沙发

2021-2-5 22:05:56

感谢!
回复 支持 反对

使用道具 举报

Makoto8023 发表于 2021-2-7 08:05:19

Makoto8023 板凳

2021-2-7 08:05:19

谢谢分享
回复 支持 反对

使用道具 举报

yu88peng 发表于 2021-2-9 09:08:23

yu88peng 地板

2021-2-9 09:08:23

谢谢分享
回复 支持 反对

使用道具 举报

zhengyashen 发表于 2021-2-9 11:22:46

zhengyashen 5#

2021-2-9 11:22:46

感谢分享~!!
回复 支持 反对

使用道具 举报

junwnag1119 发表于 2021-2-20 11:24:53

junwnag1119 6#

2021-2-20 11:24:53


感谢!
回复 支持 反对

使用道具 举报

cyjjyc 发表于 2021-2-21 12:37:29

cyjjyc 7#

2021-2-21 12:37:29

感谢分享
回复 支持 反对

使用道具 举报

   发表回复

您需要登录后才可以回帖 登录 | 立即注册

返回列表 本版积分规则

:
白银玩家
:
未填写

主题

帖子

积分1006

图文推荐

  • 99新3T硬盘带资源出售

    可烤满4K、1080P,豆瓣高分影片。 399元烤满

  • 【已售】出售115永久皇冠VIP

    115网盘: 超大空间、高速传输、200G大文

  • 出开博尔Q20PLUS+戴尔UP2718q hdr1000显示

    设备升级了,转让纯一手开博尔Q20PLUS 4K硬盘播放

  • 出99新的Xbox one X港服,只买了两个月寻有

    只买了两个月的Xbox one X港服,寻有缘人,拿回来

  • 杰士RP8000F落地音箱一对,全新拆箱,刚到

    杰士RP8000F(280F升级款)落地音箱一对,全新到

  • 在线客服

  • 返回顶部