微博 微信

Hao4K影音

电影频道
电影封面:
片  名: 《人工智能/AI人工智慧 (俄版)》4K蓝光REMUX 版本下载
电影分类: 科幻 
国  家: 美国 
年  代: 00年代
分 辨 率: 4K(3840x2160)
电影格式: MKV|REMUX 
画质标准: SDR 
音质编码: DTS:X 
电影声道: 5.1声道 
帧数/FPS: 23.976 FPS
电影语言: 英文原版 
资源大小: 73.64 GB
导  演: 史蒂芬·斯皮尔伯格(Steven Spielberg)
豆瓣评分: 8.6 分
中文字幕: -
剧情简介: ◎简  介

  21世纪中期,由于温室效应,南北极冰川融化,地球上很多城市被淹没。此时,人类科技已经高度发达,人工智能机器人就是人类发明出来用以应对恶劣自然环境的科技手段之一,而且,机器人制造技术已经高度发达,先进的机器人不但拥有可以乱真的人类外表,还能感知自身的存在。

  莫妮卡的儿子马丁重病住院,生命危在旦夕,为了缓解伤痛的心情,她领养了机器人小孩大卫(海利•乔•奥斯蒙特 饰),大卫的生存使命就是爱她。马丁苏醒,恢复健康,回到了家里,一系列的事情使大卫“失宠”,最后被莫妮卡抛弃。

  在躲过机器屠宰场的残酷追杀后,大卫在机器情人乔(裘德•洛 饰)的帮助下,开始寻找自己的生存价值:渴望变成真正的小孩,重新回到莫妮卡妈妈的身边。谁也不知道他能否完成自己的心愿,脱胎换骨成为真正的人,等待他们的只是凶吉难料的旅程……


◎获奖情况

  第74届奥斯卡金像奖 (2002)
  最佳视觉效果(提名) 斯坦·温斯顿 / 丹尼斯·穆伦 / 斯科特·法勒 / 迈克尔·兰蒂里
  最佳原创配乐(提名) 约翰·威廉姆斯

  第59届金球奖 (2002)
  电影类最佳导演(提名) 史蒂文·斯皮尔伯格
  电影类最佳男配角(提名) 裘德·洛
  电影类最佳原创配乐(提名) 约翰·威廉姆斯

  第25届日本电影学院奖 (2002)
  最佳外语片(提名)
General
Complete name : Artificial Intelligence AI.2001.BDRemux.AI_UPSCALE_3840x2160_alq-8_SDR_Final.mkv
Format : Matroska
Format version : Version 4
File size : 73.6 GiB
Duration : 2 h 25 min
Overall bit rate mode : Variable
Overall bit rate : 72.3 Mb/s
Movie name : HANSMER
Encoded date : UTC 2020-12-08 20:33:29
Writing application : mkvmerge v51.0.0 ('I Wish') 64-bit
Writing library : libebml v1.4.0 + libmatroska v1.6.2

Video
ID : 1
Format : AVC
Format/Info : Advanced Video Codec
Format profile : Baseline@L5.1
Format settings : 1 Ref Frames
Format settings, CABAC : No
Format settings, Reference fra : 1 frame
Format settings, GOP : M=1, N=12
Codec ID : V_MPEG4/ISO/AVC
Duration : 2 h 25 min
Bit rate : 56.1 Mb/s
Width : 3 840 pixels
Height : 2 160 pixels
Display aspect ratio : 16:9
Frame rate mode : Constant
Frame rate : 23.976 (24000/1001) FPS
Color space : YUV
Chroma subsampling : 4:2:0
Bit depth : 8 bits
Scan type : Progressive
Bits/(Pixel*Frame) : 0.282
Stream size : 56.0 GiB (76%)
Writing library : x264 core 157 r2970 5493be8
Encoding settings : cabac=0 / ref=1 / deblock=0:0:0 / analyse=0:0 / me=dia / subme=0 / psy=1 / psy_rd=1.00:0.00 / mixed_ref=0 / me_range=16 / chroma_me=1 / trellis=0 / 8x8dct=0 / cqm=0 / deadzone=21,11 / fast_pskip=1 / chroma_qp_offset=0 / threads=8 / lookahead_threads=1 / sliced_threads=0 / nr=0 / decimate=1 / interlaced=0 / bluray_compat=0 / constrained_intra=0 / bframes=0 / weightp=0 / keyint=12 / keyint_min=1 / scenecut=0 / intra_refresh=0 / rc=crf / mbtree=0 / crf=17.0 / qcomp=0.60 / qpmin=0 / qpmax=69 / qpstep=4 / ip_ratio=1.40 / aq=0
Default : Yes
Forced : No
Color range : Limited
Color primaries : BT.709
Transfer characteristics : BT.709
Matrix coefficients : BT.709

Audio #1
ID : 2
Format : AC-3
Format/Info : Audio Coding 3
Commercial name : Dolby Digital
Codec ID : A_AC3
Duration : 2 h 25 min
Bit rate mode : Constant
Bit rate : 640 kb/s
Channel(s) : 6 channels
Channel layout : L R C LFE Ls Rs
Sampling rate : 48.0 kHz
Frame rate : 31.250 FPS (1536 SPF)
Compression mode : Lossy
Stream size : 668 MiB (1%)
Title : Dub
Language : Russian
Service kind : Complete Main
Default : Yes
Forced : Yes

Audio #2
ID : 3
Format : DTS XLL
Format/Info : Digital Theater Systems
Commercial name : DTS-HD Master Audio
Codec ID : A_DTS
Duration : 2 h 25 min
Bit rate mode : Variable
Bit rate : 3 939 kb/s
Channel(s) : 6 channels
Channel layout : C L R Ls Rs LFE
Sampling rate : 48.0 kHz
Frame rate : 93.750 FPS (512 SPF)
Bit depth : 24 bits
Compression mode : Lossless
Stream size : 4.01 GiB (5%)
Title : MVO Karusel - DTS-HD MA 5.1 @ 3939 kbps
Language : Russian
Default : No
Forced : No

Audio #3
ID : 4
Format : DTS XLL
Format/Info : Digital Theater Systems
Commercial name : DTS-HD Master Audio
Codec ID : A_DTS
Duration : 2 h 25 min
Bit rate mode : Variable
Bit rate : 3 936 kb/s
Channel(s) : 6 channels
Channel layout : C L R Ls Rs LFE
Sampling rate : 48.0 kHz
Frame rate : 93.750 FPS (512 SPF)
Bit depth : 24 bits
Compression mode : Lossless
Stream size : 4.01 GiB (5%)
Title : MVO - DTS-HD MA 5.1 @ 3936 kbps
Language : Russian
Default : No
Forced : No

Audio #4
ID : 5
Format : DTS XLL
Format/Info : Digital Theater Systems
Commercial name : DTS-HD Master Audio
Codec ID : A_DTS
Duration : 2 h 25 min
Bit rate mode : Variable
Bit rate : 3 939 kb/s
Channel(s) : 6 channels
Channel layout : C L R Ls Rs LFE
Sampling rate : 48.0 kHz
Frame rate : 93.750 FPS (512 SPF)
Bit depth : 24 bits
Compression mode : Lossless
Stream size : 4.01 GiB (5%)
Title : J. Zivov - DTS-HD MA 5.1 @ 3939 kbps
Language : Russian
Default : No
Forced : No

Audio #5
ID : 6
Format : DTS
Format/Info : Digital Theater Systems
Codec ID : A_DTS
Duration : 2 h 25 min
Bit rate mode : Constant
Bit rate : 755 kb/s
Channel(s) : 6 channels
Channel layout : C L R Ls Rs LFE
Sampling rate : 48.0 kHz
Frame rate : 93.750 FPS (512 SPF)
Bit depth : 24 bits
Compression mode : Lossy
Stream size : 787 MiB (1%)
Title : S. Vizgunov
Language : Russian
Default : No
Forced : No

Audio #6
ID : 7
Format : DTS ES XLL
Format/Info : Digital Theater Systems
Commercial name : DTS-HD Master Audio
Codec ID : A_DTS
Duration : 2 h 25 min
Bit rate mode : Variable
Bit rate : 4 053 kb/s
Channel(s) : 6 channels
Channel(s)_Original : 7 channels
ChannelLayout_Original : C L R Ls Rs LFE Cs
Sampling rate : 48.0 kHz
Frame rate : 93.750 FPS (512 SPF)
Bit depth : 24 bits
Compression mode : Lossless
Stream size : 4.13 GiB (6%)
Title : DTS-HD MA 5.1-ES @ 4053 kbps
Language : English
Default : No
Forced : No

Text #1
ID : 8
Format : UTF-8
Codec ID : S_TEXT/UTF8
Codec ID/Info : UTF-8 Plain Text
Duration : 2 h 24 min
Bit rate : 63 b/s
Count of elements : 1156
Stream size : 67.2 KiB (0%)
Language : Russian
Default : No
Forced : No

Text #2
ID : 9
Format : UTF-8
Codec ID : S_TEXT/UTF8
Codec ID/Info : UTF-8 Plain Text
Duration : 2 h 24 min
Bit rate : 44 b/s
Count of elements : 1332
Stream size : 46.7 KiB (0%)
Language : English
Default : No
Forced : No

Text #3
ID : 10
Format : PGS
Muxing mode : zlib
Codec ID : S_HDMV/PGS
Codec ID/Info : Picture based subtitle format used on BDs/HD-DVDs
Duration : 2 h 24 min
Bit rate : 20.4 kb/s
Count of elements : 2344
Stream size : 21.2 MiB (0%)
Title : PGS
Language : Russian
Default : No
Forced : No

Text #4
ID : 11
Format : PGS
Muxing mode : zlib
Codec ID : S_HDMV/PGS
Codec ID/Info : Picture based subtitle format used on BDs/HD-DVDs
Duration : 2 h 16 min
Bit rate : 34.2 kb/s
Count of elements : 2282
Stream size : 33.4 MiB (0%)
Title : PGS
Language : English
Default : No
Forced : No

Menu
00:00:00.000 : en:Artificial Intelligence
00:07:09.971 : en:His Life is Merely Pending
00:10:12.654 : en:A Mecha Child
00:15:23.131 : en:Hide and Go Seek
00:18:31.319 : enaughter
00:21:42.301 : en:Imprinting Protocol
00:24:21.418 : en:Teddy, a Super-Toy
00:28:41.637 : en:Martin Comes Home
00:30:21.737 : en:The New Super-Toy
00:33:56.159 : en:A Classic Story
00:35:48.980 : en:Competition For Affection
00:39:57.604 : en:Mechas and Orgas
00:45:27.308 : en:Abandoned
00:53:46.432 : en:Gigolo Joe
00:57:45.837 : en:Unregistered Mecha Roundup
01:05:52.949 : en:Flesh Fair: A Celebration of Life
01:09:14.442 : en:"I'm a Boy"
01:17:48.581 : en:Journey Towards the Moon
01:22:28.902 : en:Rouge City
01:25:37.549 : enr. Know
01:31:03.083 : en:"They Hate Us"
01:33:05.413 : en:Escape From Rouge City
01:35:07.285 : en:The City at the End of the World
01:37:55.745 : en:Special and Unique
01:43:43.634 : en:Brothers and Sisters
01:46:51.822 : enavid's Leap
01:49:21.305 : en:A Plea to the Blue Fairy
01:55:41.268 : en:Memories
02:01:33.912 : en:Back Home
02:07:08.204 : en:A Question of Happiness
02:11:42.186 : en:A Perfect Day
02:18:38.727 : en:End Credits


告知:请不要用废了的迅雷下载,关于下载流量大小是个人水管、人品、下载姿势问题,不接受任何下载问题差评,资源来源不易,你回复是我发帖的动力,谢谢!
人工智能(73.64GB)Artificial Intelligence AI.2001.BDRemux.AI_UPSCALE_3840x2160_alq-8_SDR_Final提示:首发俄版4K蓝光REMUX资源,不喜勿下!
游客,如果您要查看本帖隐藏内容请回复




.


回复

使用道具 举报

苏默金武 发表于 2021-2-15 03:46:22

苏默金武 推荐

2021-2-15 03:46:22

https://www.hao4k.cn/thread-54171-1-1.html#pid1712778,双语字幕已提供下载!!!
回复 支持 反对

使用道具 举报

x555 发表于 2021-2-18 05:42:38

x555 推荐

2021-2-18 05:42:38

人工智能/AI人工智慧 (俄版)》4K蓝光REMUX 版本下载
回复 支持 反对

使用道具 举报

davidhuangls 发表于 2021-2-7 23:52:12

davidhuangls 地板

2021-2-7 23:52:12

谢谢楼主的无私奉献!
回复 支持 反对

使用道具 举报

chnwxck 发表于 2021-2-8 00:15:24

chnwxck 5#

2021-2-8 00:15:24

非常非常感谢
回复 支持 反对

使用道具 举报

戴李宇航 发表于 2021-2-8 01:49:13

戴李宇航 6#

2021-2-8 01:49:13

试一试效果
回复 支持 反对

使用道具 举报

lxf83th 发表于 2021-2-8 07:35:47

lxf83th 7#

2021-2-8 07:35:47

斯皮尔伯格的经典科幻影片,很喜欢,感谢发布。
回复 支持 反对

使用道具 举报

alanli 发表于 2021-2-8 07:48:47 Hao4K手机版

alanli 8#

2021-2-8 07:48:47

非常感谢,无私奉献
回复 支持 反对

使用道具 举报

jxdvip 发表于 2021-2-8 07:58:35

jxdvip 9#

2021-2-8 07:58:35

谢谢楼主的无私奉献!
回复 支持 反对

使用道具 举报

liuzhiwen1964 发表于 2021-2-8 08:02:57

liuzhiwen1964 10#

2021-2-8 08:02:57

非常感谢楼主
回复 支持 反对

使用道具 举报

lchlxx 发表于 2021-2-8 08:03:02

lchlxx 11#

2021-2-8 08:03:02

谢谢楼主分享 下来看看
回复 支持 反对

使用道具 举报

国家中心 发表于 2021-2-8 08:06:35

国家中心 12#

2021-2-8 08:06:35


谢谢分享楼主辛苦了
回复 支持 反对

使用道具 举报

jimmyzhang 发表于 2021-2-8 08:09:10

jimmyzhang 13#

2021-2-8 08:09:10

感谢分享
回复 支持 反对

使用道具 举报

有所为 发表于 2021-2-8 08:28:29

有所为 14#

2021-2-8 08:28:29

谢谢楼主的无私奉献!手下了。
回复 支持 反对

使用道具 举报

hg_58 发表于 2021-2-8 08:30:13

hg_58 15#

2021-2-8 08:30:13

种子链接。
回复 支持 反对

使用道具 举报

993614548 发表于 2021-2-8 08:41:16

993614548 16#

2021-2-8 08:41:16

谢谢楼主的无私分享
回复 支持 反对

使用道具 举报

小竹 发表于 2021-2-8 08:43:39

小竹 17#

2021-2-8 08:43:39

感谢分享!!!
回复 支持 反对

使用道具 举报

xiaotianbaba 发表于 2021-2-8 08:46:20

xiaotianbaba 18#

2021-2-8 08:46:20

感谢你的分享
回复 支持 反对

使用道具 举报

LIXIFE1796 发表于 2021-2-8 09:04:13

LIXIFE1796 19#

2021-2-8 09:04:13


谢谢楼主的无私奉献
回复 支持 反对

使用道具 举报

lidaiyi721 发表于 2021-2-8 09:14:04

lidaiyi721 20#

2021-2-8 09:14:04

非常感谢楼主
回复 支持 反对

使用道具 举报

   发表回复

您需要登录后才可以回帖 登录 | 立即注册

返回列表 本版积分规则

  • 在线客服

  • 返回顶部