微博 微信

Hao4K影音

电影频道
电影封面:
片  名: 公主大对换4K
电影分类: 剧情 爱情片 
国  家: 美国 
年  代: 2018年
分 辨 率: 4K(3840x2160)
电影格式: MKV|REMUX 
画质标准: SDR 
音质编码: Dolby Digital Plus Audio 
电影声道: 5.1声道 
帧数/FPS: 23.976 FPS
电影语言: 中文简体 中文繁体 英文原版 
资源大小: 8.75 GB
导  演: 麦克·罗尔
豆瓣评分: 5.9 分
中文字幕: -
剧情简介:  距离圣诞节还有一周,美丽的蒙特纳罗女公爵玛格丽特与长相跟自己一模一样的芝加哥平民史黛西对换了身份。在圣诞老人助手的魔法下,玛格丽特爱上了史黛西英俊的同事,而史黛西则爱上了玛格丽特的未婚夫,一位风度翩翩的王子。
兜乱公主闯情关(港) / 公主闹双包(台)/公主大对换4K.The.Princess.Switch.2018.2160p.NF.WEB-DL.x265.10bit.SDR.DDP5.1-4k电影信息
  1. Video
  2. ID : 1
  3. Format : HEVC
  4. Format/Info : High Efficiency Video Coding
  5. Format profile : Main 10@L5@Main
  6. Codec ID : V_MPEGH/ISO/HEVC
  7. Duration : 1 h 42 min
  8. Bit rate : 11.6 Mb/s
  9. Width : 3 840 pixels
  10. Height : 2 160 pixels
  11. Display aspect ratio : 16:9
  12. Frame rate mode : Constant
  13. Frame rate : 23.976 (24000/1001) FPS
  14. Color space : YUV
  15. Chroma subsampling : 4:2:0
  16. Bit depth : 10 bits
  17. Bits/(Pixel*Frame) : 0.058
  18. Stream size : 8.29 GiB (95%)
  19. Default : Yes
  20. Forced : No
  21. Color range : Limited
  22. Color primaries : BT.709
  23. Transfer characteristics : BT.709
  24. Matrix coefficients : BT.709

  25. Audio
  26. ID : 2
  27. Format : E-AC-3
  28. Format/Info : Enhanced AC-3
  29. Commercial name : Dolby Digital Plus
  30. Codec ID : A_EAC3
  31. Duration : 1 h 42 min
  32. Bit rate mode : Constant
  33. Bit rate : 640 kb/s
  34. Channel(s) : 6 channels
  35. Channel layout : L R C LFE Ls Rs
  36. Sampling rate : 48.0 kHz
  37. Frame rate : 31.250 FPS (1536 SPF)
  38. Compression mode : Lossy
  39. Stream size : 468 MiB (5%)
  40. Title : DDP 5.1
  41. Language : English
  42. Service kind : Complete Main
  43. Default : Yes
  44. Forced : No

  45. Text #1
  46. ID : 3
  47. Format : UTF-8
  48. Codec ID : S_TEXT/UTF8
  49. Codec ID/Info : UTF-8 Plain Text
  50. Duration : 1 h 40 min
  51. Bit rate : 69 b/s
  52. Count of elements : 1676
  53. Stream size : 51.1 KiB (0%)
  54. Title : SDH
  55. Language : English
  56. Default : No
  57. Forced : No

  58. Text #2
  59. ID : 4
  60. Format : UTF-8
  61. Codec ID : S_TEXT/UTF8
  62. Codec ID/Info : UTF-8 Plain Text
  63. Duration : 1 h 35 min
  64. Bit rate : 102 b/s
  65. Count of elements : 1473
  66. Stream size : 71.8 KiB (0%)
  67. Language : Arabic
  68. Default : No
  69. Forced : No

  70. Text #3
  71. ID : 5
  72. Format : UTF-8
  73. Codec ID : S_TEXT/UTF8
  74. Codec ID/Info : UTF-8 Plain Text
  75. Duration : 1 h 35 min
  76. Bit rate : 56 b/s
  77. Count of elements : 1465
  78. Stream size : 39.6 KiB (0%)
  79. Language : Czech
  80. Default : No
  81. Forced : No

  82. Text #24
  83. ID : 26
  84. Format : UTF-8
  85. Codec ID : S_TEXT/UTF8
  86. Codec ID/Info : UTF-8 Plain Text
  87. Duration : 1 h 40 min
  88. Bit rate : 63 b/s
  89. Count of elements : 1502
  90. Stream size : 46.6 KiB (0%)
  91. Title : Simplified
  92. Language : Chinese
  93. Default : No
  94. Forced : No

  95. Text #25
  96. ID : 27
  97. Format : UTF-8
  98. Codec ID : S_TEXT/UTF8
  99. Codec ID/Info : UTF-8 Plain Text
  100. Duration : 1 h 40 min
  101. Bit rate : 59 b/s
  102. Count of elements : 1468
  103. Stream size : 44.2 KiB (0%)
  104. Title : Traditional
  105. Language : Chinese
  106. Default : No
  107. Forced : No
复制代码


兜乱公主闯情关(港) / 公主闹双包(台)/公主大对换4K.The.Princess.Switch.2018.2160p.NF.WEB-DL.x265.10bit.SDR.DDP5.1-4K电影下载

公主大对换4K.The.Princess.Switch.2018.2160p.NF.WEB-DL.x265.10bit.SDR.DDP5.1-简繁中字【4K SDR 4.93 GB】
[Hao4K]公主大对换4K.The.Princess.Switch.2018.2160p.NF.WEB-DL.x265.10bit.SDR.DDP5.torrent (44.33 KB)
回复

使用道具 举报

全部回复10

dk30129 发表于 2021-2-8 09:07:05

dk30129 沙发

2021-2-8 09:07:05

谢谢分享,辛苦了!!!
回复 支持 反对

使用道具 举报

yangly 发表于 2021-2-8 11:18:02

yangly 板凳

2021-2-8 11:18:02

谢谢分享,辛苦了
回复 支持 反对

使用道具 举报

yale 发表于 2021-2-8 12:36:59

yale 地板

2021-2-8 12:36:59

谢谢分享
回复 支持 反对

使用道具 举报

dyczw 发表于 2021-2-8 14:55:01

dyczw 5#

2021-2-8 14:55:01

感谢分享,辛苦了
回复 支持 反对

使用道具 举报

蓝天空 发表于 2021-2-8 18:52:39

蓝天空 6#

2021-2-8 18:52:39

谢谢 辛苦啦
回复 支持 反对

使用道具 举报

wangzh20081 发表于 2021-2-8 21:02:57

wangzh20081 7#

2021-2-8 21:02:57

感谢分享,辛苦了
回复 支持 反对

使用道具 举报

huangzhongning 发表于 2021-2-9 16:12:20

huangzhongning 8#

2021-2-9 16:12:20

最爱这种不要K币的分享,谢谢
回复 支持 反对

使用道具 举报

andywjhh 发表于 2021-2-16 22:30:18

andywjhh 9#

2021-2-16 22:30:18

感谢分享,辛苦了
回复 支持 反对

使用道具 举报

Makoto8023 发表于 2021-2-19 09:07:28

Makoto8023 10#

2021-2-19 09:07:28

谢谢分享
回复 支持 反对

使用道具 举报

zdbwb 发表于 前天 11:34

zdbwb 11#

前天 11:34

谢谢分享
回复 支持 反对

使用道具 举报

   发表回复

您需要登录后才可以回帖 登录 | 立即注册

返回列表 本版积分规则

  • 在线客服

  • 返回顶部