微博 微信

Hao4K影音

电影频道
电影封面:
片  名: 自由之缰:圣诞夜的马叫4k
电影分类: 剧情 爱情片 其他 
国  家: 美国 
年  代: 2018年
分 辨 率: 4K(3840x2160)
电影格式: MKV|REMUX 
画质标准: SDR 
音质编码: Dolby Digital Plus Audio 
电影声道: 5.1声道 
帧数/FPS: 23.976 FPS
电影语言: 中文简体 中文繁体 英文原版 
资源大小: 4.93 GB
导  演: Marek Losey
豆瓣评分: 5.8 分
中文字幕: -
剧情简介: While Bright Fields preps for its Mistletoe Ball, a broken ornament leads Zoe to a family secret, while Gaby finds herself at the mercy of new boss Mia.
Zoe und Raven: Es weihnachtet sehr/自由之缰:圣诞夜的马叫4K.Free.Rein.The.Twelve.Neighs.of.Christmas.2018.2160p.NF.WEB-DL.x265.10bit.SDR.DDP5.1-4k电影信息
  1. Video
  2. ID : 1
  3. Format : HEVC
  4. Format/Info : High Efficiency Video Coding
  5. Format profile : Main 10@L5@Main
  6. Codec ID : V_MPEGH/ISO/HEVC
  7. Duration : 57 min 32 s
  8. Bit rate : 11.6 Mb/s
  9. Width : 3 840 pixels
  10. Height : 2 160 pixels
  11. Display aspect ratio : 16:9
  12. Frame rate mode : Constant
  13. Frame rate : 25.000 FPS
  14. Color space : YUV
  15. Chroma subsampling : 4:2:0
  16. Bit depth : 10 bits
  17. Bits/(Pixel*Frame) : 0.056
  18. Stream size : 4.67 GiB (95%)
  19. Default : Yes
  20. Forced : No
  21. Color range : Limited
  22. Color primaries : BT.709
  23. Transfer characteristics : BT.709
  24. Matrix coefficients : BT.709

  25. Audio
  26. ID : 2
  27. Format : E-AC-3
  28. Format/Info : Enhanced AC-3
  29. Commercial name : Dolby Digital Plus
  30. Codec ID : A_EAC3
  31. Duration : 57 min 32 s
  32. Bit rate mode : Constant
  33. Bit rate : 640 kb/s
  34. Channel(s) : 6 channels
  35. Channel layout : L R C LFE Ls Rs
  36. Sampling rate : 48.0 kHz
  37. Frame rate : 31.250 FPS (1536 SPF)
  38. Compression mode : Lossy
  39. Stream size : 263 MiB (5%)
  40. Title : DDP 5.1
  41. Language : English
  42. Service kind : Complete Main
  43. Default : Yes
  44. Forced : No

  45. Text #1
  46. ID : 3
  47. Format : UTF-8
  48. Codec ID : S_TEXT/UTF8
  49. Codec ID/Info : UTF-8 Plain Text
  50. Duration : 55 min 48 s
  51. Bit rate : 68 b/s
  52. Count of elements : 862
  53. Stream size : 28.2 KiB (0%)
  54. Title : SDH
  55. Language : English
  56. Default : No
  57. Forced : No

  58. Text #2
  59. ID : 4
  60. Format : UTF-8
  61. Codec ID : S_TEXT/UTF8
  62. Codec ID/Info : UTF-8 Plain Text
  63. Duration : 56 min 30 s
  64. Bit rate : 101 b/s
  65. Count of elements : 712
  66. Stream size : 41.8 KiB (0%)
  67. Language : Arabic
  68. Default : No
  69. Forced : No

  70. Text #3
  71. ID : 5
  72. Format : UTF-8
  73. Codec ID : S_TEXT/UTF8
  74. Codec ID/Info : UTF-8 Plain Text
  75. Duration : 55 min 49 s
  76. Bit rate : 44 b/s
  77. Count of elements : 841
  78. Stream size : 18.3 KiB (0%)
  79. Language : Czech
  80. Default : No
  81. Forced : No

  82. Text #4
  83. ID : 6
  84. Format : UTF-8
  85. Codec ID : S_TEXT/UTF8
  86. Codec ID/Info : UTF-8 Plain Text
  87. Duration : 55 min 49 s
  88. Bit rate : 46 b/s
  89. Count of elements : 611
  90. Stream size : 18.9 KiB (0%)
  91. Language : Danish
  92. Default : No
  93. Forced : No

  94. Text #21
  95. ID : 23
  96. Format : UTF-8
  97. Codec ID : S_TEXT/UTF8
  98. Codec ID/Info : UTF-8 Plain Text
  99. Duration : 55 min 49 s
  100. Bit rate : 64 b/s
  101. Count of elements : 805
  102. Stream size : 26.2 KiB (0%)
  103. Title : Simplified
  104. Language : Chinese
  105. Default : No
  106. Forced : No

  107. Text #22
  108. ID : 24
  109. Format : UTF-8
  110. Codec ID : S_TEXT/UTF8
  111. Codec ID/Info : UTF-8 Plain Text
  112. Duration : 55 min 49 s
  113. Bit rate : 60 b/s
  114. Count of elements : 804
  115. Stream size : 24.6 KiB (0%)
  116. Title : Traditional
  117. Language : Chinese
  118. Default : No
  119. Forced : No

复制代码

Zoe und Raven: Es weihnachtet sehr/自由之缰:圣诞夜的马叫4K.Free.Rein.The.Twelve.Neighs.of.Christmas.2018.2160p.NF.WEB-DL.x265.10bit.SDR.DDP5.1-4K电影下载

自由之缰:圣诞夜的马叫4K.Free.Rein.The.Twelve.Neighs.of.Christmas.2018.2160p.NF.WEB-DL.x265.10bit.SDR.DDP5.1-简繁中字【4K SDR 4.93 GB】
[Hao4K]自由之缰:圣诞夜的马叫4K.Free.Rein.The.Twelve.Neighs.of.Christmas.2018.21.torrent (49.92 KB)
回复

使用道具 举报

全部回复8

bbgrnnji 发表于 2021-2-8 10:00:30

bbgrnnji 沙发

2021-2-8 10:00:30

谢谢楼主发片,谢谢楼主了
回复 支持 反对

使用道具 举报

panbell 发表于 2021-2-8 10:43:06

panbell 板凳

2021-2-8 10:43:06

谢谢分享,辛苦了!!
回复 支持 反对

使用道具 举报

yingxiong_2 发表于 2021-2-8 11:21:31 Hao4K手机版

yingxiong_2 地板

2021-2-8 11:21:31

谢谢楼主分享,又一部4k电影
回复 支持 反对

使用道具 举报

yale 发表于 2021-2-8 12:37:25

yale 5#

2021-2-8 12:37:25

谢谢分享
回复 支持 反对

使用道具 举报

dyczw 发表于 2021-2-8 14:55:46

dyczw 6#

2021-2-8 14:55:46

感谢分享,辛苦了!
回复 支持 反对

使用道具 举报

panbell 发表于 2021-2-10 13:21:18

panbell 7#

2021-2-10 13:21:18

非常好的资源 谢谢楼主
回复 支持 反对

使用道具 举报

ZYF2004 发表于 2021-2-11 14:11:19

ZYF2004 8#

2021-2-11 14:11:19

谢谢楼主,比较新的资源,辛苦
回复 支持 反对

使用道具 举报

andywjhh 发表于 2021-2-16 22:46:39

andywjhh 9#

2021-2-16 22:46:39

辛苦了  感谢分享啊
回复 支持 反对

使用道具 举报

   发表回复

您需要登录后才可以回帖 登录 | 立即注册

返回列表 本版积分规则

  • 在线客服

  • 返回顶部