微博 微信

Hao4K影音

电影频道
电影封面:
片  名: 皮奥里亚王子4k
电影分类: 其他 
国  家: 美国 
年  代: 2018年
分 辨 率: 4K(3840x2160)
电影格式: MKV|REMUX 
画质标准: HDR SDR 
音质编码: Dolby Digital Plus Audio 
电影声道: 5.1声道 
帧数/FPS: 23.976 FPS
电影语言: 英文原版 
资源大小: 3.27 GB
导  演: Devin Bunje / Nick Stanton / Jason Jordan
豆瓣评分: 5.6 分
中文字幕: -
剧情简介: Story of a wealthy prince who travels to the US to live as an exchange student. While living in anonymity, the prince strikes up an unlikely friendship.
Prinz von Peoria/皮奥里亚王子4k Prince.of.Peoria.A.Christmas.Moose.Miracle.2018.2160p.NF.WEB-DL.x265.10bit.HDR.DDP5.1.美剧信息
  1. Video
  2. ID : 1
  3. Format : HEVC
  4. Format/Info : High Efficiency Video Coding
  5. Format profile : Main 10@L5@Main
  6. HDR format : SMPTE ST 2086, HDR10 compatible
  7. Codec ID : V_MPEGH/ISO/HEVC
  8. Duration : 28 min 24 s
  9. Bit rate : 15.8 Mb/s
  10. Width : 3 840 pixels
  11. Height : 2 160 pixels
  12. Display aspect ratio : 16:9
  13. Frame rate mode : Constant
  14. Frame rate : 23.976 (24000/1001) FPS
  15. Color space : YUV
  16. Chroma subsampling : 4:2:0 (Type 2)
  17. Bit depth : 10 bits
  18. Bits/(Pixel*Frame) : 0.079
  19. Stream size : 3.14 GiB (96%)
  20. Default : Yes
  21. Forced : No
  22. Color range : Limited
  23. Color primaries : BT.2020
  24. Transfer characteristics : PQ
  25. Matrix coefficients : BT.2020 non-constant
  26. Mastering display color primaries : Display P3
  27. Mastering display luminance : min: 0.0050 cd/m2, max: 4000 cd/m2
  28. Maximum Content Light Level : 3584 cd/m2
  29. Maximum Frame-Average Light Level : 1385 cd/m2

  30. Audio
  31. ID : 2
  32. Format : E-AC-3
  33. Format/Info : Enhanced AC-3
  34. Commercial name : Dolby Digital Plus
  35. Codec ID : A_EAC3
  36. Duration : 29 min 16 s
  37. Bit rate mode : Constant
  38. Bit rate : 640 kb/s
  39. Channel(s) : 6 channels
  40. Channel layout : L R C LFE Ls Rs
  41. Sampling rate : 48.0 kHz
  42. Frame rate : 31.250 FPS (1536 SPF)
  43. Compression mode : Lossy
  44. Stream size : 134 MiB (4%)
  45. Title : DDP 5.1
  46. Language : English
  47. Service kind : Complete Main
  48. Default : Yes
  49. Forced : No

  50. Text #1
  51. ID : 3
  52. Format : UTF-8
  53. Codec ID : S_TEXT/UTF8
  54. Codec ID/Info : UTF-8 Plain Text
  55. Duration : 28 min 8 s
  56. Bit rate : 79 b/s
  57. Count of elements : 490
  58. Stream size : 16.5 KiB (0%)
  59. Title : SDH
  60. Language : English
  61. Default : No
  62. Forced : No

  63. Text #2
  64. ID : 4
  65. Format : UTF-8
  66. Codec ID : S_TEXT/UTF8
  67. Codec ID/Info : UTF-8 Plain Text
  68. Duration : 28 min 12 s
  69. Bit rate : 125 b/s
  70. Count of elements : 448
  71. Stream size : 25.9 KiB (0%)
  72. Language : Arabic
  73. Default : No
  74. Forced : No

  75. Text #3
  76. ID : 5
  77. Format : UTF-8
  78. Codec ID : S_TEXT/UTF8
  79. Codec ID/Info : UTF-8 Plain Text
  80. Duration : 28 min 12 s
  81. Bit rate : 63 b/s
  82. Count of elements : 448
  83. Stream size : 13.2 KiB (0%)
  84. Language : Czech
  85. Default : No
  86. Forced : No

  87. Text #4
  88. ID : 6
  89. Format : UTF-8
  90. Codec ID : S_TEXT/UTF8
  91. Codec ID/Info : UTF-8 Plain Text
  92. Duration : 28 min 12 s
  93. Bit rate : 62 b/s
  94. Count of elements : 425
  95. Stream size : 12.8 KiB (0%)
  96. Language : Danish
  97. Default : No
  98. Forced : No

  99. Text #5
  100. ID : 7
  101. Format : UTF-8
  102. Codec ID : S_TEXT/UTF8
  103. Codec ID/Info : UTF-8 Plain Text
  104. Duration : 28 min 12 s
  105. Bit rate : 65 b/s
  106. Count of elements : 437
  107. Stream size : 13.6 KiB (0%)
  108. Language : Spanish
  109. Default : No
  110. Forced : No

  111. Text #6
  112. ID : 8
  113. Format : UTF-8
  114. Codec ID : S_TEXT/UTF8
  115. Codec ID/Info : UTF-8 Plain Text
  116. Duration : 28 min 12 s
  117. Bit rate : 59 b/s
  118. Count of elements : 443
  119. Stream size : 12.3 KiB (0%)
  120. Language : Spanish
  121. Default : No
  122. Forced : No

  123. Text #7
  124. ID : 9
  125. Format : UTF-8
  126. Codec ID : S_TEXT/UTF8
  127. Codec ID/Info : UTF-8 Plain Text
  128. Duration : 28 min 12 s
  129. Bit rate : 68 b/s
  130. Count of elements : 436
  131. Stream size : 14.2 KiB (0%)
  132. Language : German
  133. Default : No
  134. Forced : No

  135. Text #8
  136. ID : 10
  137. Format : UTF-8
  138. Codec ID : S_TEXT/UTF8
  139. Codec ID/Info : UTF-8 Plain Text
  140. Duration : 28 min 12 s
  141. Bit rate : 114 b/s
  142. Count of elements : 432
  143. Stream size : 23.6 KiB (0%)
  144. Language : Greek
  145. Default : No
  146. Forced : No

  147. Text #9
  148. ID : 11
  149. Format : UTF-8
  150. Codec ID : S_TEXT/UTF8
  151. Codec ID/Info : UTF-8 Plain Text
  152. Duration : 28 min 12 s
  153. Bit rate : 56 b/s
  154. Count of elements : 402
  155. Stream size : 11.7 KiB (0%)
  156. Language : Finnish
  157. Default : No
  158. Forced : No

  159. Text #10
  160. ID : 12
  161. Format : UTF-8
  162. Codec ID : S_TEXT/UTF8
  163. Codec ID/Info : UTF-8 Plain Text
  164. Duration : 28 min 12 s
  165. Bit rate : 66 b/s
  166. Count of elements : 447
  167. Stream size : 13.8 KiB (0%)
  168. Language : French
  169. Default : No
  170. Forced : No

  171. Text #11
  172. ID : 13
  173. Format : UTF-8
  174. Codec ID : S_TEXT/UTF8
  175. Codec ID/Info : UTF-8 Plain Text
  176. Duration : 28 min 12 s
  177. Bit rate : 106 b/s
  178. Count of elements : 444
  179. Stream size : 22.0 KiB (0%)
  180. Language : Hebrew
  181. Default : No
  182. Forced : No

  183. Text #12
  184. ID : 14
  185. Format : UTF-8
  186. Codec ID : S_TEXT/UTF8
  187. Codec ID/Info : UTF-8 Plain Text
  188. Duration : 28 min 12 s
  189. Bit rate : 73 b/s
  190. Count of elements : 448
  191. Stream size : 15.3 KiB (0%)
  192. Language : Hungarian
  193. Default : No
  194. Forced : No

  195. Text #13
  196. ID : 15
  197. Format : UTF-8
  198. Codec ID : S_TEXT/UTF8
  199. Codec ID/Info : UTF-8 Plain Text
  200. Duration : 28 min 12 s
  201. Bit rate : 63 b/s
  202. Count of elements : 447
  203. Stream size : 13.1 KiB (0%)
  204. Language : Indonesian
  205. Default : No
  206. Forced : No

  207. Text #14
  208. ID : 16
  209. Format : UTF-8
  210. Codec ID : S_TEXT/UTF8
  211. Codec ID/Info : UTF-8 Plain Text
  212. Duration : 28 min 12 s
  213. Bit rate : 69 b/s
  214. Count of elements : 442
  215. Stream size : 14.4 KiB (0%)
  216. Language : Italian
  217. Default : No
  218. Forced : No

  219. Text #15
  220. ID : 17
  221. Format : UTF-8
  222. Codec ID : S_TEXT/UTF8
  223. Codec ID/Info : UTF-8 Plain Text
  224. Duration : 28 min 12 s
  225. Bit rate : 76 b/s
  226. Count of elements : 459
  227. Stream size : 15.8 KiB (0%)
  228. Language : Japanese
  229. Default : No
  230. Forced : No

  231. Text #16
  232. ID : 18
  233. Format : UTF-8
  234. Codec ID : S_TEXT/UTF8
  235. Codec ID/Info : UTF-8 Plain Text
  236. Duration : 28 min 12 s
  237. Bit rate : 86 b/s
  238. Count of elements : 444
  239. Stream size : 17.9 KiB (0%)
  240. Language : Korean
  241. Default : No
  242. Forced : No

  243. Text #17
  244. ID : 19
  245. Format : UTF-8
  246. Codec ID : S_TEXT/UTF8
  247. Codec ID/Info : UTF-8 Plain Text
  248. Duration : 28 min 9 s
  249. Bit rate : 61 b/s
  250. Count of elements : 407
  251. Stream size : 12.6 KiB (0%)
  252. Language : Norwegian Bokmal
  253. Default : No
  254. Forced : No

  255. Text #18
  256. ID : 20
  257. Format : UTF-8
  258. Codec ID : S_TEXT/UTF8
  259. Codec ID/Info : UTF-8 Plain Text
  260. Duration : 28 min 12 s
  261. Bit rate : 63 b/s
  262. Count of elements : 418
  263. Stream size : 13.1 KiB (0%)
  264. Language : Dutch
  265. Default : No
  266. Forced : No

  267. Text #19
  268. ID : 21
  269. Format : UTF-8
  270. Codec ID : S_TEXT/UTF8
  271. Codec ID/Info : UTF-8 Plain Text
  272. Duration : 28 min 12 s
  273. Bit rate : 70 b/s
  274. Count of elements : 448
  275. Stream size : 14.6 KiB (0%)
  276. Title : Simplified
  277. Language : Chinese
  278. Default : No
  279. Forced : No

  280. Text #20
  281. ID : 22
  282. Format : UTF-8
  283. Codec ID : S_TEXT/UTF8
  284. Codec ID/Info : UTF-8 Plain Text
  285. Duration : 28 min 12 s
  286. Bit rate : 73 b/s
  287. Count of elements : 448
  288. Stream size : 15.2 KiB (0%)
  289. Title : Traditional
  290. Language : Chinese
  291. Default : No
  292. Forced : No

  293. Text #21
  294. ID : 23
  295. Format : UTF-8
  296. Codec ID : S_TEXT/UTF8
  297. Codec ID/Info : UTF-8 Plain Text
  298. Duration : 28 min 13 s
  299. Bit rate : 56 b/s
  300. Count of elements : 437
  301. Stream size : 11.6 KiB (0%)
  302. Language : Polish
  303. Default : No
  304. Forced : No

  305. Text #22
  306. ID : 24
  307. Format : UTF-8
  308. Codec ID : S_TEXT/UTF8
  309. Codec ID/Info : UTF-8 Plain Text
  310. Duration : 28 min 12 s
  311. Bit rate : 58 b/s
  312. Count of elements : 436
  313. Stream size : 12.0 KiB (0%)
  314. Title : Brasil
  315. Language : Portuguese
  316. Default : No
  317. Forced : No

  318. Text #23
  319. ID : 25
  320. Format : UTF-8
  321. Codec ID : S_TEXT/UTF8
  322. Codec ID/Info : UTF-8 Plain Text
  323. Duration : 28 min 12 s
  324. Bit rate : 58 b/s
  325. Count of elements : 424
  326. Stream size : 12.2 KiB (0%)
  327. Language : Portuguese
  328. Default : No
  329. Forced : No

  330. Text #24
  331. ID : 26
  332. Format : UTF-8
  333. Codec ID : S_TEXT/UTF8
  334. Codec ID/Info : UTF-8 Plain Text
  335. Duration : 28 min 14 s
  336. Bit rate : 73 b/s
  337. Count of elements : 438
  338. Stream size : 15.1 KiB (0%)
  339. Language : Romanian
  340. Default : No
  341. Forced : No

  342. Text #25
  343. ID : 27
  344. Format : UTF-8
  345. Codec ID : S_TEXT/UTF8
  346. Codec ID/Info : UTF-8 Plain Text
  347. Duration : 28 min 13 s
  348. Bit rate : 99 b/s
  349. Count of elements : 433
  350. Stream size : 20.7 KiB (0%)
  351. Language : Russian
  352. Default : No
  353. Forced : No

  354. Text #26
  355. ID : 28
  356. Format : UTF-8
  357. Codec ID : S_TEXT/UTF8
  358. Codec ID/Info : UTF-8 Plain Text
  359. Duration : 28 min 12 s
  360. Bit rate : 60 b/s
  361. Count of elements : 415
  362. Stream size : 12.5 KiB (0%)
  363. Language : Swedish
  364. Default : No
  365. Forced : No

  366. Text #27
  367. ID : 29
  368. Format : UTF-8
  369. Codec ID : S_TEXT/UTF8
  370. Codec ID/Info : UTF-8 Plain Text
  371. Duration : 28 min 12 s
  372. Bit rate : 177 b/s
  373. Count of elements : 448
  374. Stream size : 36.6 KiB (0%)
  375. Language : Thai
  376. Default : No
  377. Forced : No

  378. Text #28
  379. ID : 30
  380. Format : UTF-8
  381. Codec ID : S_TEXT/UTF8
  382. Codec ID/Info : UTF-8 Plain Text
  383. Duration : 28 min 12 s
  384. Bit rate : 68 b/s
  385. Count of elements : 442
  386. Stream size : 14.2 KiB (0%)
  387. Language : Turkish
  388. Default : No
  389. Forced : No

  390. Text #29
  391. ID : 31
  392. Format : UTF-8
  393. Codec ID : S_TEXT/UTF8
  394. Codec ID/Info : UTF-8 Plain Text
  395. Duration : 28 min 12 s
  396. Bit rate : 90 b/s
  397. Count of elements : 448
  398. Stream size : 18.6 KiB (0%)
  399. Language : Vietnamese
  400. Default : No
  401. Forced : No
复制代码

Prinz von Peoria/皮奥里亚王子4k Prince.of.Peoria.A.Christmas.Moose.Miracle.2018.2160p.NF.WEB-DL.x265.10bit.HDR.DDP5.1.美剧下载

皮奥里亚王子4k Prince.of.Peoria.A.Christmas.Moose.Miracle.2018.2160p.NF.WEB-DL.x265.10bit.HDR.DDP5.1【3.27 GB】
[Hao4k]皮奥里亚王子4k Prince.of.Peoria.A.Christmas.Moose.Miracle.2018.2160p.NF.W.torrent (33.31 KB)
回复

使用道具 举报

全部回复6

yale 发表于 2021-2-8 12:40:16

yale 沙发

2021-2-8 12:40:16

谢谢分享
回复 支持 反对

使用道具 举报

dyczw 发表于 2021-2-8 14:58:34

dyczw 板凳

2021-2-8 14:58:34

感谢分享,辛苦了
回复 支持 反对

使用道具 举报

dk30129 发表于 2021-2-9 08:07:29

dk30129 地板

2021-2-9 08:07:29

谢谢分享,楼主辛苦了
回复 支持 反对

使用道具 举报

panbell 发表于 2021-2-10 13:25:36

panbell 5#

2021-2-10 13:25:36

非常好的资源 谢谢楼主
回复 支持 反对

使用道具 举报

Makoto8023 发表于 2021-2-12 00:35:35

Makoto8023 6#

2021-2-12 00:35:35

多谢分享
回复 支持 反对

使用道具 举报

andywjhh 发表于 2021-2-16 22:50:54

andywjhh 7#

2021-2-16 22:50:54

辛苦了  感谢分享啊
回复 支持 反对

使用道具 举报

   发表回复

您需要登录后才可以回帖 登录 | 立即注册

返回列表 本版积分规则

  • 在线客服

  • 返回顶部