微博 微信

Hao4K影音

电影频道
电影封面:
片  名: 圣诞愿景4k
电影分类: 剧情 
国  家: 加拿大 
年  代: 2018年
分 辨 率: 4K(3840x2160)
电影格式: MKV|REMUX 
画质标准: SDR 
音质编码: Dolby Digital Plus Audio 
电影声道: 5.1声道 
帧数/FPS: 23.976 FPS
电影语言: 中文简体 英文原版 
资源大小: 7.99 GB
导  演: Justin G. Dyck
豆瓣评分: 5.1 分
中文字幕: -
剧情简介:  This Christmas, Thunder Mountain Ski Resort is abuzz when celebrity chef Shane Roarke is named the new head chef. Clara Garrison isn\'t as excited and is instead focused on getting resettled after her failed attempt at opening a big city restaurant. With their paths constantly crossing, will their shared passion for cooking bring them together or will secrets keep them apart?
Paisagem de Natal/圣诞愿景4k Christmas.With.A.View.2018.2160p.NF.WEB-DL.x265.10bit.SDR.DDP5.1.电影信息
  1. Video
  2. ID : 1
  3. Format : HEVC
  4. Format/Info : High Efficiency Video Coding
  5. Format profile : Main 10@L5@Main
  6. Codec ID : V_MPEGH/ISO/HEVC
  7. Duration : 1 h 31 min
  8. Bit rate : 11.9 Mb/s
  9. Width : 3 840 pixels
  10. Height : 2 160 pixels
  11. Display aspect ratio : 16:9
  12. Frame rate mode : Constant
  13. Frame rate : 23.976 (24000/1001) FPS
  14. Color space : YUV
  15. Chroma subsampling : 4:2:0
  16. Bit depth : 10 bits
  17. Bits/(Pixel*Frame) : 0.060
  18. Stream size : 7.58 GiB (95%)
  19. Default : Yes
  20. Forced : No
  21. Color range : Limited
  22. Color primaries : BT.709
  23. Transfer characteristics : BT.709
  24. Matrix coefficients : BT.709

  25. Audio
  26. ID : 2
  27. Format : E-AC-3
  28. Format/Info : Enhanced AC-3
  29. Commercial name : Dolby Digital Plus
  30. Codec ID : A_EAC3
  31. Duration : 1 h 31 min
  32. Bit rate mode : Constant
  33. Bit rate : 640 kb/s
  34. Channel(s) : 6 channels
  35. Channel layout : L R C LFE Ls Rs
  36. Sampling rate : 48.0 kHz
  37. Frame rate : 31.250 FPS (1536 SPF)
  38. Compression mode : Lossy
  39. Stream size : 417 MiB (5%)
  40. Title : DDP 5.1
  41. Language : English
  42. Service kind : Complete Main
  43. Default : Yes
  44. Forced : No

  45. Text #1
  46. ID : 3
  47. Format : UTF-8
  48. Codec ID : S_TEXT/UTF8
  49. Codec ID/Info : UTF-8 Plain Text
  50. Duration : 1 h 28 min
  51. Bit rate : 76 b/s
  52. Count of elements : 1481
  53. Stream size : 49.5 KiB (0%)
  54. Title : SDH
  55. Language : English
  56. Default : No
  57. Forced : No

  58. Text #2
  59. ID : 4
  60. Format : UTF-8
  61. Codec ID : S_TEXT/UTF8
  62. Codec ID/Info : UTF-8 Plain Text
  63. Duration : 1 h 27 min
  64. Bit rate : 107 b/s
  65. Count of elements : 1335
  66. Stream size : 69.3 KiB (0%)
  67. Language : Arabic
  68. Default : No
  69. Forced : No

  70. Text #3
  71. ID : 5
  72. Format : UTF-8
  73. Codec ID : S_TEXT/UTF8
  74. Codec ID/Info : UTF-8 Plain Text
  75. Duration : 1 h 27 min
  76. Bit rate : 65 b/s
  77. Count of elements : 1336
  78. Stream size : 42.4 KiB (0%)
  79. Language : Danish
  80. Default : No
  81. Forced : No

  82. Text #4
  83. ID : 6
  84. Format : UTF-8
  85. Codec ID : S_TEXT/UTF8
  86. Codec ID/Info : UTF-8 Plain Text
  87. Duration : 1 h 27 min
  88. Bit rate : 62 b/s
  89. Count of elements : 1336
  90. Stream size : 40.2 KiB (0%)
  91. Language : German
  92. Default : No
  93. Forced : No

  94. Text #5
  95. ID : 7
  96. Format : UTF-8
  97. Codec ID : S_TEXT/UTF8
  98. Codec ID/Info : UTF-8 Plain Text
  99. Duration : 1 h 27 min
  100. Bit rate : 113 b/s
  101. Count of elements : 1334
  102. Stream size : 72.8 KiB (0%)
  103. Language : Greek
  104. Default : No
  105. Forced : No

  106. Text #6
  107. ID : 8
  108. Format : UTF-8
  109. Codec ID : S_TEXT/UTF8
  110. Codec ID/Info : UTF-8 Plain Text
  111. Duration : 1 h 27 min
  112. Bit rate : 58 b/s
  113. Count of elements : 1328
  114. Stream size : 37.5 KiB (0%)
  115. Language : Finnish
  116. Default : No
  117. Forced : No

  118. Text #7
  119. ID : 9
  120. Format : UTF-8
  121. Codec ID : S_TEXT/UTF8
  122. Codec ID/Info : UTF-8 Plain Text
  123. Duration : 1 h 27 min
  124. Bit rate : 72 b/s
  125. Count of elements : 1333
  126. Stream size : 46.9 KiB (0%)
  127. Language : French
  128. Default : No
  129. Forced : No

  130. Text #8
  131. ID : 10
  132. Format : UTF-8
  133. Codec ID : S_TEXT/UTF8
  134. Codec ID/Info : UTF-8 Plain Text
  135. Duration : 1 h 27 min
  136. Bit rate : 87 b/s
  137. Count of elements : 1335
  138. Stream size : 56.4 KiB (0%)
  139. Language : Hebrew
  140. Default : No
  141. Forced : No

  142. Text #9
  143. ID : 11
  144. Format : UTF-8
  145. Codec ID : S_TEXT/UTF8
  146. Codec ID/Info : UTF-8 Plain Text
  147. Duration : 1 h 27 min
  148. Bit rate : 52 b/s
  149. Count of elements : 1333
  150. Stream size : 33.6 KiB (0%)
  151. Language : Spanish
  152. Default : No
  153. Forced : No

  154. Text #10
  155. ID : 12
  156. Format : UTF-8
  157. Codec ID : S_TEXT/UTF8
  158. Codec ID/Info : UTF-8 Plain Text
  159. Duration : 1 h 27 min
  160. Bit rate : 62 b/s
  161. Count of elements : 1347
  162. Stream size : 40.1 KiB (0%)
  163. Language : Spanish
  164. Default : No
  165. Forced : No

  166. Text #11
  167. ID : 13
  168. Format : UTF-8
  169. Codec ID : S_TEXT/UTF8
  170. Codec ID/Info : UTF-8 Plain Text
  171. Duration : 1 h 27 min
  172. Bit rate : 59 b/s
  173. Count of elements : 1334
  174. Stream size : 38.2 KiB (0%)
  175. Language : Italian
  176. Default : No
  177. Forced : No

  178. Text #12
  179. ID : 14
  180. Format : UTF-8
  181. Codec ID : S_TEXT/UTF8
  182. Codec ID/Info : UTF-8 Plain Text
  183. Duration : 1 h 27 min
  184. Bit rate : 51 b/s
  185. Count of elements : 1272
  186. Stream size : 33.3 KiB (0%)
  187. Language : Japanese
  188. Default : No
  189. Forced : No

  190. Text #13
  191. ID : 15
  192. Format : UTF-8
  193. Codec ID : S_TEXT/UTF8
  194. Codec ID/Info : UTF-8 Plain Text
  195. Duration : 1 h 27 min
  196. Bit rate : 70 b/s
  197. Count of elements : 1333
  198. Stream size : 45.7 KiB (0%)
  199. Language : Korean
  200. Default : No
  201. Forced : No

  202. Text #14
  203. ID : 16
  204. Format : UTF-8
  205. Codec ID : S_TEXT/UTF8
  206. Codec ID/Info : UTF-8 Plain Text
  207. Duration : 1 h 27 min
  208. Bit rate : 59 b/s
  209. Count of elements : 1334
  210. Stream size : 38.1 KiB (0%)
  211. Language : Norwegian Bokmal
  212. Default : No
  213. Forced : No

  214. Text #15
  215. ID : 17
  216. Format : UTF-8
  217. Codec ID : S_TEXT/UTF8
  218. Codec ID/Info : UTF-8 Plain Text
  219. Duration : 1 h 27 min
  220. Bit rate : 60 b/s
  221. Count of elements : 1335
  222. Stream size : 39.2 KiB (0%)
  223. Title : Simplified
  224. Language : Chinese
  225. Default : No
  226. Forced : No

  227. Text #16
  228. ID : 18
  229. Format : UTF-8
  230. Codec ID : S_TEXT/UTF8
  231. Codec ID/Info : UTF-8 Plain Text
  232. Duration : 1 h 27 min
  233. Bit rate : 62 b/s
  234. Count of elements : 1335
  235. Stream size : 40.0 KiB (0%)
  236. Title : Traditional
  237. Language : Chinese
  238. Default : No
  239. Forced : No

  240. Text #17
  241. ID : 19
  242. Format : UTF-8
  243. Codec ID : S_TEXT/UTF8
  244. Codec ID/Info : UTF-8 Plain Text
  245. Duration : 1 h 27 min
  246. Bit rate : 52 b/s
  247. Count of elements : 1261
  248. Stream size : 33.5 KiB (0%)
  249. Language : Dutch
  250. Default : No
  251. Forced : No

  252. Text #18
  253. ID : 20
  254. Format : UTF-8
  255. Codec ID : S_TEXT/UTF8
  256. Codec ID/Info : UTF-8 Plain Text
  257. Duration : 1 h 27 min
  258. Bit rate : 60 b/s
  259. Count of elements : 1309
  260. Stream size : 38.9 KiB (0%)
  261. Language : Polish
  262. Default : No
  263. Forced : No

  264. Text #19
  265. ID : 21
  266. Format : UTF-8
  267. Codec ID : S_TEXT/UTF8
  268. Codec ID/Info : UTF-8 Plain Text
  269. Duration : 1 h 27 min
  270. Bit rate : 65 b/s
  271. Count of elements : 1334
  272. Stream size : 41.9 KiB (0%)
  273. Title : Brasil
  274. Language : Portuguese
  275. Default : No
  276. Forced : No

  277. Text #20
  278. ID : 22
  279. Format : UTF-8
  280. Codec ID : S_TEXT/UTF8
  281. Codec ID/Info : UTF-8 Plain Text
  282. Duration : 1 h 27 min
  283. Bit rate : 67 b/s
  284. Count of elements : 1332
  285. Stream size : 43.7 KiB (0%)
  286. Language : Portuguese
  287. Default : No
  288. Forced : No

  289. Text #21
  290. ID : 23
  291. Format : UTF-8
  292. Codec ID : S_TEXT/UTF8
  293. Codec ID/Info : UTF-8 Plain Text
  294. Duration : 1 h 27 min
  295. Bit rate : 59 b/s
  296. Count of elements : 1335
  297. Stream size : 38.5 KiB (0%)
  298. Language : Romanian
  299. Default : No
  300. Forced : No

  301. Text #22
  302. ID : 24
  303. Format : UTF-8
  304. Codec ID : S_TEXT/UTF8
  305. Codec ID/Info : UTF-8 Plain Text
  306. Duration : 1 h 27 min
  307. Bit rate : 66 b/s
  308. Count of elements : 1332
  309. Stream size : 42.7 KiB (0%)
  310. Language : Swedish
  311. Default : No
  312. Forced : No

  313. Text #23
  314. ID : 25
  315. Format : UTF-8
  316. Codec ID : S_TEXT/UTF8
  317. Codec ID/Info : UTF-8 Plain Text
  318. Duration : 1 h 27 min
  319. Bit rate : 148 b/s
  320. Count of elements : 1335
  321. Stream size : 95.4 KiB (0%)
  322. Language : Thai
  323. Default : No
  324. Forced : No

  325. Text #24
  326. ID : 26
  327. Format : UTF-8
  328. Codec ID : S_TEXT/UTF8
  329. Codec ID/Info : UTF-8 Plain Text
  330. Duration : 1 h 27 min
  331. Bit rate : 61 b/s
  332. Count of elements : 1335
  333. Stream size : 39.9 KiB (0%)
  334. Language : Turkish
  335. Default : No
  336. Forced : No
复制代码

Paisagem de Natal/圣诞愿景4k Christmas.With.A.View.2018.2160p.NF.WEB-DL.x265.10bit.SDR.DDP5.1.电影下载

圣诞愿景4k Christmas.With.A.View.2018.2160p.NF.WEB-DL.x265.10bit.SDR.DDP5.1【7.99 GB】
[Hao4k]圣诞愿景4k Christmas.With.A.View.2018.2160p.NF.WEB-DL.x265.10bit.SDR.DDP5.torrent (40.5 KB)
回复

使用道具 举报

全部回复14

chenjilong66 发表于 2021-2-8 12:28:08

chenjilong66 沙发

2021-2-8 12:28:08

最近怎么都是出些剧情片啊,一点都不好看,看着都想睡觉,能不能放多点好莱坞动作大片上来?
回复 支持 反对

使用道具 举报

yale 发表于 2021-2-8 12:40:37

yale 板凳

2021-2-8 12:40:37

谢谢分享
回复 支持 反对

使用道具 举报

dyczw 发表于 2021-2-8 14:59:03

dyczw 地板

2021-2-8 14:59:03

感谢分享,辛苦了
回复 支持 反对

使用道具 举报

xxw8888 发表于 2021-2-8 15:00:19 Hao4K手机版

xxw8888 5#

2021-2-8 15:00:19

谢谢分享新片
回复 支持 反对

使用道具 举报

xlnwxn 发表于 2021-2-8 16:54:46

xlnwxn 6#

2021-2-8 16:54:46

谢谢分享
回复 支持 反对

使用道具 举报

蓝天空 发表于 2021-2-8 18:56:52

蓝天空 7#

2021-2-8 18:56:52

ganxie感谢分享
回复 支持 反对

使用道具 举报

施华蔻 发表于 2021-2-9 09:36:15

施华蔻 8#

2021-2-9 09:36:15

chenjilong66 发表于 2021-2-8 12:28
最近怎么都是出些剧情片啊,一点都不好看,看着都想睡觉,能不能放多点好莱坞动作大片上来?

哈哈哈哈!圣诞节是欧美人最重要的节日,但好像圣诞相关题材的影视作品,没一个像样的
回复 支持 反对

使用道具 举报

ywf6168 发表于 2021-2-9 13:37:57

ywf6168 9#

2021-2-9 13:37:57

谢谢分享
回复 支持 反对

使用道具 举报

光腚跑得快 发表于 2021-2-9 14:53:13

光腚跑得快 10#

2021-2-9 14:53:13

感谢分享
回复 支持 反对

使用道具 举报

Makoto8023 发表于 2021-2-10 12:02:59

Makoto8023 11#

2021-2-10 12:02:59

谢谢分享
回复 支持 反对

使用道具 举报

panbell 发表于 2021-2-10 13:24:33

panbell 12#

2021-2-10 13:24:33

非常好的资源 谢谢楼主
回复 支持 反对

使用道具 举报

ZYF2004 发表于 2021-2-11 14:05:48

ZYF2004 13#

2021-2-11 14:05:48

谢谢楼主分享
回复 支持 反对

使用道具 举报

zengzzs 发表于 2021-2-11 15:56:50

zengzzs 14#

2021-2-11 15:56:50

感谢分享,支持楼主
回复 支持 反对

使用道具 举报

Ken_Zhao 发表于 2021-2-13 12:02:01

Ken_Zhao 15#

2021-2-13 12:02:01

过年看看挺好的,多谢啦
回复 支持 反对

使用道具 举报

   发表回复

您需要登录后才可以回帖 登录 | 立即注册

返回列表 本版积分规则

  • 在线客服

  • 返回顶部