微博 微信

Hao4K影音

电影频道
电影封面:
片  名: 人生七部曲4k
电影分类: 喜剧 歌舞 
国  家: 美国 
年  代: 80年代
分 辨 率: 4K(3840x2160)
电影格式: MKV|REMUX 
画质标准: 其他 
音质编码: Dolby-TrueHD 
电影声道: 5.1声道 
帧数/FPS: 23.976 FPS
电影语言: 英文原版 
资源大小: 5.1 GB
导  演: 特瑞·琼斯 / 特瑞·吉列姆
豆瓣评分: 8.3 分
中文字幕: -
剧情简介:  关于宗教的故事——失业的天主教徒唱着“每颗精子都是神圣的”,把一屋四五十个孩子送去做医学实验,因为再也负担不起他们,而对门的新教夫妇一面幸灾乐祸,一面感叹自己“只性交两次,有两个孩子”;关于性的故事——教授在课堂上向学生讲解“性”是什么,但是学生总不得要领,无奈之下,教授把自己太太拉过来当堂向学生示范;关于死亡的故事——死神来到一个农舍,声言要带走所有人,但这里聚集了许多美国朋友,不但毫不在意,还热情地邀请他喝酒聊天,让死神忍无可忍……人生七部曲,七个沉重的话题却放入足够荒诞的故事,嬉笑怒骂讽刺世间百态。
脱线一箩筐(台) / 万世魔星:生命的意义 / Monty Python's The Meaning of Life/人生七部曲4k The Meaning of Life 1983 2160p BluRay AI x265 HEVC 10bit DTS 5.1电影信息
  1. Video
  2. ID : 1
  3. Format : HEVC
  4. Format/Info : High Efficiency Video Coding
  5. Format profile : Main [email protected]@Main
  6. Codec ID : V_MPEGH/ISO/HEVC
  7. Duration : 1 h 47 min
  8. Bit rate : 6 001 kb/s
  9. Width : 3 840 pixels
  10. Height : 2 080 pixels
  11. Display aspect ratio : 1.85:1
  12. Frame rate mode : Constant
  13. Frame rate : 23.976 (24000/1001) FPS
  14. Color space : YUV
  15. Chroma subsampling : 4:2:0
  16. Bit depth : 10 bits
  17. Bits/(Pixel*Frame) : 0.031
  18. Stream size : 4.48 GiB (88%)
  19. Writing library : x265 3.2+9-971180b100f8:[Windows][GCC 9.2.0][64 bit] 10bit
  20. Encoding settings : cpuid=1111039 / frame-threads=3 / numa-pools=12 / wpp / no-pmode / no-pme / no-psnr / ssim / log-level=2 / input-csp=1 / input-res=3840x2080 / interlace=0 / total-frames=153927 / level-idc=0 / high-tier=1 / uhd-bd=0 / ref=4 / no-allow-non-conformance / no-repeat-headers / annexb / no-aud / no-hrd / info / hash=0 / no-temporal-layers / open-gop / min-keyint=23 / keyint=250 / gop-lookahead=0 / bframes=8 / b-adapt=2 / b-pyramid / bframe-bias=40 / rc-lookahead=80 / lookahead-slices=4 / scenecut=40 / radl=0 / no-splice / no-intra-refresh / ctu=64 / min-cu-size=8 / rect / no-amp / max-tu-size=32 / tu-inter-depth=1 / tu-intra-depth=1 / limit-tu=0 / rdoq-level=2 / dynamic-rd=0.00 / ssim-rd / signhide / no-tskip / nr-intra=0 / nr-inter=0 / constrained-intra / strong-intra-smoothing / max-merge=3 / limit-refs=3 / limit-modes / me=3 / subme=3 / merange=57 / temporal-mvp / no-frame-dup / no-hme / weightp / no-weightb / no-analyze-src-pics / deblock=0:0 / sao / no-sao-non-deblock / rd=4 / selective-sao=4 / early-skip / rskip / no-fast-intra / no-tskip-fast / no-cu-lossless / no-b-intra / splitrd-skip / rdpenalty=0 / psy-rd=2.45 / psy-rdoq=1.50 / no-rd-refine / no-lossless / cbqpoffs=0 / crqpoffs=0 / rc=abr / bitrate=6000 / qcomp=0.60 / qpstep=4 / stats-write=0 / stats-read=2 / cplxblur=20.0 / qblur=0.5 / ipratio=1.40 / pbratio=1.30 / aq-mode=3 / aq-strength=0.40 / cutree / zone-count=0 / no-strict-cbr / qg-size=32 / no-rc-grain / qpmax=69 / qpmin=0 / no-const-vbv / sar=0 / overscan=0 / videoformat=5 / range=0 / colorprim=2 / transfer=2 / colormatrix=2 / chromaloc=0 / display-window=0 / cll=0,0 / min-luma=0 / max-luma=1023 / log2-max-poc-lsb=8 / vui-timing-info / vui-hrd-info / slices=1 / no-opt-qp-pps / no-opt-ref-list-length-pps / multi-pass-opt-rps / scenecut-bias=0.05 / no-opt-cu-delta-qp / no-aq-motion / no-hdr / no-hdr-opt / no-dhdr10-opt / no-idr-recovery-sei / analysis-load / analysis-reuse-level=10 / scale-factor=0 / refine-intra=0 / refine-inter=0 / refine-mv=1 / refine-ctu-distortion=0 / limit-sao / ctu-info=0 / no-lowpass-dct / refine-analysis-type=0 / copy-pic=1 / max-ausize-factor=1.0 / no-dynamic-refine / no-single-sei / no-hevc-aq / no-svt / no-field / qp-adaptation-range=1.00
  21. Default : Yes
  22. Forced : No

  23. Audio
  24. ID : 2
  25. Format : DTS
  26. Format/Info : Digital Theater Systems
  27. Mode : 16
  28. Format settings, Endianness : Big
  29. Codec ID : A_DTS
  30. Duration : 1 h 47 min
  31. Bit rate mode : Constant
  32. Bit rate : 768 kb/s
  33. Channel(s) : 6 channels
  34. Channel positions : Front: L C R, Side: L R, LFE
  35. Sampling rate : 48.0 kHz
  36. Frame rate : 93.750 FPS (512 spf)
  37. Bit depth : 16 bits
  38. Compression mode : Lossy
  39. Stream size : 588 MiB (11%)
  40. Title : SDH
  41. Language : English
  42. Default : No
  43. Forced : No

  44. Subtitle #1
  45. ID : 3
  46. Format : VobSub
  47. Muxing mode : zlib
  48. Codec ID : S_VOBSUB
  49. Codec ID/Info : Picture based subtitle format used on DVDs
  50. Duration : 1 h 29 min
  51. Bit rate : 1 634 b/s
  52. Count of elements : 186
  53. Stream size : 1.04 MiB (0%)
  54. Language : English
  55. Default : No
  56. Forced : No

  57. Subtitle #2
  58. ID : 4
  59. Format : VobSub
  60. Muxing mode : zlib
  61. Codec ID : S_VOBSUB
  62. Codec ID/Info : Picture based subtitle format used on DVDs
  63. Duration : 1 h 46 min
  64. Bit rate : 12.9 kb/s
  65. Count of elements : 1543
  66. Stream size : 9.78 MiB (0%)
  67. Language : English
  68. Default : No
  69. Forced : No

  70. Subtitle #3
  71. ID : 5
  72. Format : VobSub
  73. Muxing mode : zlib
  74. Codec ID : S_VOBSUB
  75. Codec ID/Info : Picture based subtitle format used on DVDs
  76. Duration : 1 h 46 min
  77. Bit rate : 5 650 b/s
  78. Count of elements : 1310
  79. Stream size : 4.32 MiB (0%)
  80. Language : Arabic
  81. Default : No
  82. Forced : No

  83. Subtitle #4
  84. ID : 6
  85. Format : VobSub
  86. Muxing mode : zlib
  87. Codec ID : S_VOBSUB
  88. Codec ID/Info : Picture based subtitle format used on DVDs
  89. Duration : 1 h 46 min
  90. Bit rate : 10.0 kb/s
  91. Count of elements : 1297
  92. Stream size : 7.68 MiB (0%)
  93. Language : Danish
  94. Default : No
  95. Forced : No

  96. Subtitle #5
  97. ID : 7
  98. Format : VobSub
  99. Muxing mode : zlib
  100. Codec ID : S_VOBSUB
  101. Codec ID/Info : Picture based subtitle format used on DVDs
  102. Duration : 1 h 46 min
  103. Bit rate : 9 742 b/s
  104. Count of elements : 1288
  105. Stream size : 7.45 MiB (0%)
  106. Language : Dutch
  107. Default : No
  108. Forced : No

  109. Subtitle #6
  110. ID : 8
  111. Format : VobSub
  112. Muxing mode : zlib
  113. Codec ID : S_VOBSUB
  114. Codec ID/Info : Picture based subtitle format used on DVDs
  115. Duration : 1 h 46 min
  116. Bit rate : 10.2 kb/s
  117. Count of elements : 1302
  118. Stream size : 7.82 MiB (0%)
  119. Language : Finnish
  120. Default : No
  121. Forced : No

  122. Subtitle #7
  123. ID : 9
  124. Format : VobSub
  125. Muxing mode : zlib
  126. Codec ID : S_VOBSUB
  127. Codec ID/Info : Picture based subtitle format used on DVDs
  128. Duration : 1 h 46 min
  129. Bit rate : 10.2 kb/s
  130. Count of elements : 1290
  131. Stream size : 7.77 MiB (0%)
  132. Language : French
  133. Default : No
  134. Forced : No

  135. Subtitle #8
  136. ID : 10
  137. Format : VobSub
  138. Muxing mode : zlib
  139. Codec ID : S_VOBSUB
  140. Codec ID/Info : Picture based subtitle format used on DVDs
  141. Duration : 1 h 46 min
  142. Bit rate : 11.5 kb/s
  143. Count of elements : 1301
  144. Stream size : 8.78 MiB (0%)
  145. Language : German
  146. Default : No
  147. Forced : No

  148. Subtitle #9
  149. ID : 11
  150. Format : VobSub
  151. Muxing mode : zlib
  152. Codec ID : S_VOBSUB
  153. Codec ID/Info : Picture based subtitle format used on DVDs
  154. Duration : 1 h 46 min
  155. Bit rate : 9 983 b/s
  156. Count of elements : 1300
  157. Stream size : 7.64 MiB (0%)
  158. Language : Italian
  159. Default : No
  160. Forced : No

  161. Subtitle #10
  162. ID : 12
  163. Format : VobSub
  164. Muxing mode : zlib
  165. Codec ID : S_VOBSUB
  166. Codec ID/Info : Picture based subtitle format used on DVDs
  167. Duration : 1 h 46 min
  168. Bit rate : 6 093 b/s
  169. Count of elements : 1243
  170. Stream size : 4.66 MiB (0%)
  171. Language : Japanese
  172. Default : No
  173. Forced : No

  174. Subtitle #11
  175. ID : 13
  176. Format : VobSub
  177. Muxing mode : zlib
  178. Codec ID : S_VOBSUB
  179. Codec ID/Info : Picture based subtitle format used on DVDs
  180. Duration : 1 h 46 min
  181. Bit rate : 9 946 b/s
  182. Count of elements : 1298
  183. Stream size : 7.61 MiB (0%)
  184. Language : Norwegian Bokmal
  185. Default : No
  186. Forced : No

  187. Subtitle #12
  188. ID : 14
  189. Format : VobSub
  190. Muxing mode : zlib
  191. Codec ID : S_VOBSUB
  192. Codec ID/Info : Picture based subtitle format used on DVDs
  193. Duration : 1 h 46 min
  194. Bit rate : 10.3 kb/s
  195. Count of elements : 1298
  196. Stream size : 7.89 MiB (0%)
  197. Language : Portuguese
  198. Default : No
  199. Forced : No

  200. Subtitle #13
  201. ID : 15
  202. Format : VobSub
  203. Muxing mode : zlib
  204. Codec ID : S_VOBSUB
  205. Codec ID/Info : Picture based subtitle format used on DVDs
  206. Duration : 1 h 46 min
  207. Bit rate : 10.5 kb/s
  208. Count of elements : 1305
  209. Stream size : 8.02 MiB (0%)
  210. Language : Spanish
  211. Default : No
  212. Forced : No

  213. Subtitle #14
  214. ID : 16
  215. Format : VobSub
  216. Muxing mode : zlib
  217. Codec ID : S_VOBSUB
  218. Codec ID/Info : Picture based subtitle format used on DVDs
  219. Duration : 1 h 46 min
  220. Bit rate : 8 914 b/s
  221. Count of elements : 1304
  222. Stream size : 6.82 MiB (0%)
  223. Language : Swedish
  224. Default : No
  225. Forced : No

  226. Subtitle #15
  227. ID : 17
  228. Format : UTF-8
  229. Codec ID : S_TEXT/UTF8
  230. Codec ID/Info : UTF-8 Plain Text
  231. Duration : 1 h 44 min
  232. Bit rate : 107 b/s
  233. Count of elements : 1379
  234. Stream size : 82.0 KiB (0%)
  235. Language : Persian
  236. Default : No
  237. Forced : No

  238. Subtitle #16
  239. ID : 18
  240. Format : UTF-8
  241. Codec ID : S_TEXT/UTF8
  242. Codec ID/Info : UTF-8 Plain Text
  243. Duration : 1 h 46 min
  244. Bit rate : 66 b/s
  245. Count of elements : 1474
  246. Stream size : 51.7 KiB (0%)
  247. Language : Korean
  248. Default : No
  249. Forced : No

  250. Subtitle #17
  251. ID : 19
  252. Format : UTF-8
  253. Codec ID : S_TEXT/UTF8
  254. Codec ID/Info : UTF-8 Plain Text
  255. Duration : 1 h 46 min
  256. Bit rate : 102 b/s
  257. Count of elements : 1294
  258. Stream size : 80.3 KiB (0%)
  259. Language : Russian
  260. Default : No
  261. Forced : No

  262. Subtitle #18
  263. ID : 20
  264. Format : UTF-8
  265. Codec ID : S_TEXT/UTF8
  266. Codec ID/Info : UTF-8 Plain Text
  267. Duration : 1 h 46 min
  268. Bit rate : 93 b/s
  269. Count of elements : 1416
  270. Stream size : 73.2 KiB (0%)
  271. Language : Vietnamese
  272. Default : No
  273. Forced : No

  274. Menu
  275. 00:00:00.000 : en:The Meaning of Life
  276. 00:16:31.615 : en:Birth
  277. 00:20:17.215 : en:Birth In the Third World
  278. 00:24:46.943 : en:The Protestant View
  279. 00:31:50.199 : en:Religious Education
  280. 00:34:19.432 : en:Sed Education
  281. 00:37:16.275 : en:Physical Education
  282. 00:43:44.830 : en:Fighting Each Other
  283. 00:45:04.993 : en:Military Education
  284. 00:48:53.096 : en:Officers & Gentlemen
  285. 00:51:40.931 : en:A Tiger
  286. 00:57:39.581 : en:Find the Truth
  287. 01:01:22.553 : en:Philosophy a La Carte
  288. 01:03:45.112 : en:The Liver Donor
  289. 01:08:36.278 : en:The Galaxy
  290. 01:11:13.352 : en:The Very Big Corporation of America
  291. 01:15:16.303 : en:Mr Creosote: The Joy of Fat
  292. 01:17:44.534 : en:The Meaning of It All
  293. 01:24:37.572 : en:The Good Death Guide
  294. 01:29:40.291 : en:Autumn Leaves
  295. 01:31:39.827 : en:The Grim Reaper
  296. 01:32:41.556 : en:Stairway to Heaven
  297. 01:39:53.612 : en:Christmas In Heaven
  298. 01:41:16.528 : en:The End of the Film
  299. 01:43:34.666 : en:End Credits
复制代码

脱线一箩筐(台) / 万世魔星:生命的意义 / Monty Python's The Meaning of Life/人生七部曲4k The Meaning of Life 1983 2160p BluRay AI x265 HEVC 10bit DTS 5.1电影下载

人生七部曲4k The Meaning of Life 1983 2160p BluRay AI x265 HEVC 10bit DTS 5.1【5.1 GB】
人生七部曲 4k.txt (93 Bytes)
回复

使用道具 举报

   发表回复

您需要登录后才可以回帖 登录 | 立即注册

返回列表 本版积分规则

  • 在线客服

  • 返回顶部