微博 微信

Hao4K影音

电影频道
电影封面:
片  名: 万世魔星4k
电影分类: 喜剧 
国  家: 英国 
年  代: 70年代
分 辨 率: 4K(3840x2160)
电影格式: MKV|REMUX 
画质标准: 其他 
音质编码:  
电影声道: 5.1声道 
帧数/FPS: 23.976 FPS
电影语言: 中文简体 英文原版 
资源大小: 4.4 GB
导  演: 特瑞·琼斯
豆瓣评分: 8.0 分
中文字幕: -
剧情简介: 本片是英国著名的喜剧团体Monty Python的成员特里琼斯 (Terry Jones)导演的一部荒诞不经的调侃宗教的电影,故事的发生地在巴勒斯坦,讲述了一个普通的男人被世人误认为是弥赛亚(犹太人企盼的复国救主),由此引发了许多啼笑皆非的故事,一如Monty Python所有的电影那般,特里琼斯在这部电影中也使用了大量荒诞无厘头的笑料,电影以圣经为原型,由头至尾都充斥着颠覆,嘲讽的意味,对于虔诚的宗教人士来说,这部电影确实是场巨大的灾难。
布莱恩的一生 / Monty Python's Life of Brian/万世魔星4k Life of Brian  1979 2160p BluRay AI x265 HEVC 10bit EAC3 5.1电影信息
  1. Video
  2. ID : 1
  3. Format : HEVC
  4. Format/Info : High Efficiency Video Coding
  5. Codec ID : V_MPEGH/ISO/HEVC
  6. Duration : 1 h 33 min
  7. Bit rate : 6 000 kb/s
  8. Width : 3 840 pixels
  9. Height : 2 080 pixels
  10. Display aspect ratio : 1.85:1
  11. Frame rate mode : Constant
  12. Frame rate : 23.976 (24000/1001) FPS
  13. Color space : YUV
  14. Chroma subsampling : 4:2:0
  15. Bit depth : 10 bits
  16. Bits/(Pixel*Frame) : 0.031
  17. Stream size : 3.93 GiB (89%)
  18. Writing library : x265 3.2+9-971180b100f8:[Windows][MSVC 1923][64 bit] 10bit
  19. Encoding settings : cpuid=1111039 / frame-threads=4 / numa-pools=24 / wpp / no-pmode / no-pme / no-psnr / ssim / log-level=2 / input-csp=1 / input-res=3840x2080 / interlace=0 / total-frames=134832 / level-idc=0 / high-tier=1 / uhd-bd=0 / ref=4 / no-allow-non-conformance / no-repeat-headers / annexb / no-aud / no-hrd / info / hash=0 / no-temporal-layers / open-gop / min-keyint=23 / keyint=250 / gop-lookahead=0 / bframes=8 / b-adapt=2 / b-pyramid / bframe-bias=40 / rc-lookahead=80 / lookahead-slices=4 / scenecut=40 / radl=0 / no-splice / no-intra-refresh / ctu=64 / min-cu-size=8 / no-rect / no-amp / max-tu-size=32 / tu-inter-depth=1 / tu-intra-depth=1 / limit-tu=0 / rdoq-level=2 / dynamic-rd=0.00 / ssim-rd / signhide / no-tskip / nr-intra=0 / nr-inter=0 / constrained-intra / strong-intra-smoothing / max-merge=3 / limit-refs=3 / limit-modes / me=3 / subme=3 / merange=57 / temporal-mvp / no-frame-dup / no-hme / weightp / no-weightb / no-analyze-src-pics / deblock=0:0 / sao / no-sao-non-deblock / rd=4 / selective-sao=4 / early-skip / rskip / no-fast-intra / no-tskip-fast / no-cu-lossless / no-b-intra / splitrd-skip / rdpenalty=0 / psy-rd=2.45 / psy-rdoq=1.50 / no-rd-refine / no-lossless / cbqpoffs=0 / crqpoffs=0 / rc=abr / bitrate=6000 / qcomp=0.60 / qpstep=4 / stats-write=0 / stats-read=2 / cplxblur=20.0 / qblur=0.5 / ipratio=1.40 / pbratio=1.30 / aq-mode=3 / aq-strength=0.40 / cutree / zone-count=0 / no-strict-cbr / qg-size=32 / no-rc-grain / qpmax=69 / qpmin=0 / no-const-vbv / sar=0 / overscan=0 / videoformat=5 / range=0 / colorprim=1 / transfer=1 / colormatrix=1 / chromaloc=0 / display-window=0 / cll=0,0 / min-luma=0 / max-luma=1023 / log2-max-poc-lsb=8 / vui-timing-info / vui-hrd-info / slices=1 / no-opt-qp-pps / no-opt-ref-list-length-pps / multi-pass-opt-rps / scenecut-bias=0.05 / no-opt-cu-delta-qp / no-aq-motion / no-hdr / no-hdr-opt / no-dhdr10-opt / no-idr-recovery-sei / analysis-load / analysis-reuse-level=10 / scale-factor=0 / refine-intra=0 / refine-inter=0 / refine-mv=1 / refine-ctu-distortion=0 / limit-sao / ctu-info=0 / no-lowpass-dct / refine-analysis-type=0 / copy-pic=1 / max-ausize-factor=1.0 / no-dynamic-refine / no-single-sei / no-hevc-aq / no-svt / no-field / qp-adaptation-range=1.00
  20. Default : Yes
  21. Forced : No
  22. Color range : Limited
  23. Color primaries : BT.709
  24. Transfer characteristics : BT.709
  25. Matrix coefficients : BT.709

  26. Audio #1
  27. ID : 2
  28. Format : E-AC-3
  29. Format/Info : Enhanced Audio Coding 3
  30. Format settings, Endianness : Big
  31. Codec ID : A_EAC3
  32. Duration : 1 h 33 min
  33. Bit rate mode : Constant
  34. Bit rate : 400 kb/s
  35. Channel(s) : 6 channels
  36. Channel positions : Front: L C R, Side: L R, LFE
  37. Sampling rate : 48.0 kHz
  38. Frame rate : 187.500 FPS (256 spf)
  39. Compression mode : Lossy
  40. Stream size : 268 MiB (6%)
  41. Language : English
  42. Default : No
  43. Forced : No

  44. Audio #2
  45. ID : 3
  46. Format : AAC
  47. Format/Info : Advanced Audio Codec
  48. Format profile : HE-AAC / LC
  49. Codec ID : A_AAC
  50. Duration : 1 h 33 min
  51. Bit rate : 50.5 kb/s
  52. Channel(s) : 2 channels
  53. Channel positions : Front: L R
  54. Sampling rate : 48.0 kHz / 24.0 kHz
  55. Frame rate : 23.438 FPS (1024 spf)
  56. Compression mode : Lossy
  57. Delay relative to video : 31 ms
  58. Stream size : 33.9 MiB (1%)
  59. Title : Commentary by Terry Gilliam, Eric Idle, and Terry Jones
  60. Language : English
  61. Default : No
  62. Forced : No

  63. Audio #3
  64. ID : 4
  65. Format : AAC
  66. Format/Info : Advanced Audio Codec
  67. Format profile : HE-AAC / LC
  68. Codec ID : A_AAC
  69. Duration : 1 h 33 min
  70. Bit rate : 52.4 kb/s
  71. Channel(s) : 2 channels
  72. Channel positions : Front: L R
  73. Sampling rate : 48.0 kHz / 24.0 kHz
  74. Frame rate : 23.438 FPS (1024 spf)
  75. Compression mode : Lossy
  76. Delay relative to video : 31 ms
  77. Stream size : 35.1 MiB (1%)
  78. Title : Commentary with co-writer/actor John Cleese, and co-writer/actor Michael Palin
  79. Language : English
  80. Default : No
  81. Forced : No

  82. Subtitle #1
  83. ID : 5
  84. Format : PGS
  85. Muxing mode : zlib
  86. Codec ID : S_HDMV/PGS
  87. Codec ID/Info : Picture based subtitle format used on BDs/HD-DVDs
  88. Duration : 1 h 31 min
  89. Bit rate : 43.7 kb/s
  90. Count of elements : 2734
  91. Stream size : 28.5 MiB (1%)
  92. Language : English
  93. Default : No
  94. Forced : No

  95. Subtitle #2
  96. ID : 6
  97. Format : VobSub
  98. Muxing mode : zlib
  99. Codec ID : S_VOBSUB
  100. Codec ID/Info : Picture based subtitle format used on DVDs
  101. Duration : 1 h 31 min
  102. Bit rate : 13.1 kb/s
  103. Count of elements : 1367
  104. Stream size : 8.56 MiB (0%)
  105. Language : English
  106. Default : No
  107. Forced : No

  108. Subtitle #3
  109. ID : 7
  110. Format : VobSub
  111. Muxing mode : zlib
  112. Codec ID : S_VOBSUB
  113. Codec ID/Info : Picture based subtitle format used on DVDs
  114. Duration : 1 h 32 min
  115. Bit rate : 10.7 kb/s
  116. Count of elements : 1499
  117. Stream size : 7.13 MiB (0%)
  118. Language : English
  119. Default : No
  120. Forced : No

  121. Subtitle #4
  122. ID : 8
  123. Format : VobSub
  124. Muxing mode : zlib
  125. Codec ID : S_VOBSUB
  126. Codec ID/Info : Picture based subtitle format used on DVDs
  127. Duration : 1 h 32 min
  128. Bit rate : 10.7 kb/s
  129. Count of elements : 1502
  130. Stream size : 7.13 MiB (0%)
  131. Language : English
  132. Default : No
  133. Forced : No

  134. Subtitle #5
  135. ID : 9
  136. Format : VobSub
  137. Muxing mode : zlib
  138. Codec ID : S_VOBSUB
  139. Codec ID/Info : Picture based subtitle format used on DVDs
  140. Duration : 1 h 31 min
  141. Bit rate : 11.1 kb/s
  142. Count of elements : 1312
  143. Stream size : 7.31 MiB (0%)
  144. Language : French
  145. Default : No
  146. Forced : No

  147. Subtitle #6
  148. ID : 10
  149. Format : VobSub
  150. Muxing mode : zlib
  151. Codec ID : S_VOBSUB
  152. Codec ID/Info : Picture based subtitle format used on DVDs
  153. Duration : 1 h 31 min
  154. Bit rate : 10.1 kb/s
  155. Count of elements : 1331
  156. Stream size : 6.66 MiB (0%)
  157. Language : Spanish
  158. Default : No
  159. Forced : No

  160. Subtitle #7
  161. ID : 11
  162. Format : VobSub
  163. Muxing mode : zlib
  164. Codec ID : S_VOBSUB
  165. Codec ID/Info : Picture based subtitle format used on DVDs
  166. Duration : 1 h 31 min
  167. Bit rate : 6 434 b/s
  168. Count of elements : 1326
  169. Stream size : 4.23 MiB (0%)
  170. Language : Arabic
  171. Default : No
  172. Forced : No

  173. Subtitle #8
  174. ID : 12
  175. Format : VobSub
  176. Muxing mode : zlib
  177. Codec ID : S_VOBSUB
  178. Codec ID/Info : Picture based subtitle format used on DVDs
  179. Duration : 1 h 31 min
  180. Bit rate : 12.3 kb/s
  181. Count of elements : 1333
  182. Stream size : 8.07 MiB (0%)
  183. Language : Bulgarian
  184. Default : No
  185. Forced : No

  186. Subtitle #9
  187. ID : 13
  188. Format : VobSub
  189. Muxing mode : zlib
  190. Codec ID : S_VOBSUB
  191. Codec ID/Info : Picture based subtitle format used on DVDs
  192. Duration : 1 h 31 min
  193. Bit rate : 11.4 kb/s
  194. Count of elements : 1258
  195. Stream size : 7.47 MiB (0%)
  196. Language : Chinese
  197. Default : No
  198. Forced : No

  199. Subtitle #10
  200. ID : 14
  201. Format : VobSub
  202. Muxing mode : zlib
  203. Codec ID : S_VOBSUB
  204. Codec ID/Info : Picture based subtitle format used on DVDs
  205. Duration : 1 h 31 min
  206. Bit rate : 9 895 b/s
  207. Count of elements : 1322
  208. Stream size : 6.50 MiB (0%)
  209. Language : Croatian
  210. Default : No
  211. Forced : No

  212. Subtitle #11
  213. ID : 15
  214. Format : VobSub
  215. Muxing mode : zlib
  216. Codec ID : S_VOBSUB
  217. Codec ID/Info : Picture based subtitle format used on DVDs
  218. Duration : 1 h 31 min
  219. Bit rate : 11.0 kb/s
  220. Count of elements : 1323
  221. Stream size : 7.25 MiB (0%)
  222. Language : Czech
  223. Default : No
  224. Forced : No

  225. Subtitle #12
  226. ID : 16
  227. Format : VobSub
  228. Muxing mode : zlib
  229. Codec ID : S_VOBSUB
  230. Codec ID/Info : Picture based subtitle format used on DVDs
  231. Duration : 1 h 31 min
  232. Bit rate : 10.0 kb/s
  233. Count of elements : 932
  234. Stream size : 6.60 MiB (0%)
  235. Language : Danish
  236. Default : No
  237. Forced : No

  238. Subtitle #13
  239. ID : 17
  240. Format : VobSub
  241. Muxing mode : zlib
  242. Codec ID : S_VOBSUB
  243. Codec ID/Info : Picture based subtitle format used on DVDs
  244. Duration : 1 h 32 min
  245. Bit rate : 10.2 kb/s
  246. Count of elements : 930
  247. Stream size : 6.71 MiB (0%)
  248. Language : Dutch
  249. Default : No
  250. Forced : No

  251. Subtitle #14
  252. ID : 18
  253. Format : VobSub
  254. Muxing mode : zlib
  255. Codec ID : S_VOBSUB
  256. Codec ID/Info : Picture based subtitle format used on DVDs
  257. Duration : 1 h 31 min
  258. Bit rate : 9 631 b/s
  259. Count of elements : 877
  260. Stream size : 6.34 MiB (0%)
  261. Language : Finnish
  262. Default : No
  263. Forced : No

  264. Subtitle #15
  265. ID : 19
  266. Format : VobSub
  267. Muxing mode : zlib
  268. Codec ID : S_VOBSUB
  269. Codec ID/Info : Picture based subtitle format used on DVDs
  270. Duration : 1 h 31 min
  271. Bit rate : 9 588 b/s
  272. Count of elements : 1321
  273. Stream size : 6.30 MiB (0%)
  274. Language : Hebrew
  275. Default : No
  276. Forced : No

  277. Subtitle #16
  278. ID : 20
  279. Format : VobSub
  280. Muxing mode : zlib
  281. Codec ID : S_VOBSUB
  282. Codec ID/Info : Picture based subtitle format used on DVDs
  283. Duration : 1 h 31 min
  284. Bit rate : 11.6 kb/s
  285. Count of elements : 1319
  286. Stream size : 7.64 MiB (0%)
  287. Language : Hindi
  288. Default : No
  289. Forced : No

  290. Subtitle #17
  291. ID : 21
  292. Format : VobSub
  293. Muxing mode : zlib
  294. Codec ID : S_VOBSUB
  295. Codec ID/Info : Picture based subtitle format used on DVDs
  296. Duration : 1 h 31 min
  297. Bit rate : 9 972 b/s
  298. Count of elements : 1292
  299. Stream size : 6.56 MiB (0%)
  300. Language : Hungarian
  301. Default : No
  302. Forced : No

  303. Subtitle #18
  304. ID : 22
  305. Format : VobSub
  306. Muxing mode : zlib
  307. Codec ID : S_VOBSUB
  308. Codec ID/Info : Picture based subtitle format used on DVDs
  309. Duration : 1 h 31 min
  310. Bit rate : 8 384 b/s
  311. Count of elements : 877
  312. Stream size : 5.51 MiB (0%)
  313. Language : Icelandic
  314. Default : No
  315. Forced : No

  316. Subtitle #19
  317. ID : 23
  318. Format : VobSub
  319. Muxing mode : zlib
  320. Codec ID : S_VOBSUB
  321. Codec ID/Info : Picture based subtitle format used on DVDs
  322. Duration : 1 h 31 min
  323. Bit rate : 12.3 kb/s
  324. Count of elements : 1326
  325. Stream size : 8.12 MiB (0%)
  326. Language : Norwegian Bokmal
  327. Default : No
  328. Forced : No

  329. Subtitle #20
  330. ID : 24
  331. Format : VobSub
  332. Muxing mode : zlib
  333. Codec ID : S_VOBSUB
  334. Codec ID/Info : Picture based subtitle format used on DVDs
  335. Duration : 1 h 31 min
  336. Bit rate : 9 638 b/s
  337. Count of elements : 1319
  338. Stream size : 6.34 MiB (0%)
  339. Language : Polish
  340. Default : No
  341. Forced : No

  342. Subtitle #21
  343. ID : 25
  344. Format : VobSub
  345. Muxing mode : zlib
  346. Codec ID : S_VOBSUB
  347. Codec ID/Info : Picture based subtitle format used on DVDs
  348. Duration : 1 h 31 min
  349. Bit rate : 11.3 kb/s
  350. Count of elements : 1369
  351. Stream size : 7.41 MiB (0%)
  352. Language : Portuguese
  353. Default : No
  354. Forced : No

  355. Subtitle #22
  356. ID : 26
  357. Format : VobSub
  358. Muxing mode : zlib
  359. Codec ID : S_VOBSUB
  360. Codec ID/Info : Picture based subtitle format used on DVDs
  361. Duration : 1 h 31 min
  362. Bit rate : 11.8 kb/s
  363. Count of elements : 1373
  364. Stream size : 7.76 MiB (0%)
  365. Language : Romanian
  366. Default : No
  367. Forced : No

  368. Subtitle #23
  369. ID : 27
  370. Format : VobSub
  371. Muxing mode : zlib
  372. Codec ID : S_VOBSUB
  373. Codec ID/Info : Picture based subtitle format used on DVDs
  374. Duration : 1 h 31 min
  375. Bit rate : 9 603 b/s
  376. Count of elements : 1318
  377. Stream size : 6.31 MiB (0%)
  378. Language : Slovenian
  379. Default : No
  380. Forced : No

  381. Subtitle #24
  382. ID : 28
  383. Format : VobSub
  384. Muxing mode : zlib
  385. Codec ID : S_VOBSUB
  386. Codec ID/Info : Picture based subtitle format used on DVDs
  387. Duration : 1 h 31 min
  388. Bit rate : 8 632 b/s
  389. Count of elements : 881
  390. Stream size : 5.68 MiB (0%)
  391. Language : Swedish
  392. Default : No
  393. Forced : No

  394. Subtitle #25
  395. ID : 29
  396. Format : VobSub
  397. Muxing mode : zlib
  398. Codec ID : S_VOBSUB
  399. Codec ID/Info : Picture based subtitle format used on DVDs
  400. Duration : 1 h 31 min
  401. Bit rate : 11.0 kb/s
  402. Count of elements : 1258
  403. Stream size : 7.22 MiB (0%)
  404. Language : Thai
  405. Default : No
  406. Forced : No

  407. Subtitle #26
  408. ID : 30
  409. Format : VobSub
  410. Muxing mode : zlib
  411. Codec ID : S_VOBSUB
  412. Codec ID/Info : Picture based subtitle format used on DVDs
  413. Duration : 1 h 31 min
  414. Bit rate : 12.4 kb/s
  415. Count of elements : 1327
  416. Stream size : 8.13 MiB (0%)
  417. Language : Turkish
  418. Default : No
  419. Forced : No
复制代码

布莱恩的一生 / Monty Python's Life of Brian/万世魔星4k Life of Brian  1979 2160p BluRay AI x265 HEVC 10bit EAC3 5.1电影下载

万世魔星4k Life of Brian  1979 2160p BluRay AI x265 HEVC 10bit EAC3 5.1【4.4 GB】
万世魔星 4k.txt (90 Bytes)
回复

使用道具 举报

   发表回复

您需要登录后才可以回帖 登录 | 立即注册

返回列表 本版积分规则

  • 在线客服

  • 返回顶部