微博 微信

Hao4K影音

电影频道
电影封面:
片  名: 最初的梦想4k
电影分类: 剧情 喜剧 爱情片 
国  家: 印度 
年  代: 2019年
分 辨 率: 4K(3840x2160)
电影格式: MKV|REMUX 
画质标准: 其他 
音质编码: Dolby Digital Plus Audio 其他DD 
电影声道: 5.1声道 
帧数/FPS: 24.000 FPS
电影语言: 英文原版 
资源大小: 5.5 GB
导  演: 涅提·蒂瓦里
豆瓣评分: 7.9 分
中文字幕: -
剧情简介: 被帕塔克(苏尚特·辛格·拉吉普特 饰)寄予厚望的儿子拉加夫高考失利,因无法忍受“失败者”的标签而发生意外。面对病床前丧失信心的儿子,帕塔克讲述了大学时代,自己与朋友们以及前妻玛雅(施拉达·卡普尔 饰),为了完成“失败者”的逆袭,在冠军联赛中“损招”尽出的故事。一段啼笑皆非的青春往事揭开帷幕,他们会实现最初的梦想吗?
万万没想到(台)/最初的梦想4k Chhichhore 2019 Hindi 2160p JPN BluRay x265 HEVC 10bit DDP 5.1印度电影信息
  1. Video
  2. Format : HEVC
  3. Format/Info : High Efficiency Video Coding
  4. Codec ID : V_MPEGH/ISO/HEVC
  5. Duration : 2 h 23 min
  6. Bit rate : 4 646 kb/s
  7. Width : 3 840 pixels
  8. Height : 1 600 pixels
  9. Display aspect ratio : 2.40:1
  10. Frame rate mode : Constant
  11. Frame rate : 24.000 FPS
  12. Color space : YUV
  13. Chroma subsampling : 4:2:0
  14. Bit depth : 10 bits
  15. Bits/(Pixel*Frame) : 0.032
  16. Stream size : 4.66 GiB (84%)
  17. Writing library : x265 3.2+9-971180b100f8:[Windows][GCC 9.2.0][64 bit] 10bit
  18. Encoding settings : cpuid=1111039 / frame-threads=4 / numa-pools=16 / wpp / no-pmode / no-pme / no-psnr / no-ssim / log-level=2 / input-csp=1 / input-res=3840x1600 / interlace=0 / total-frames=206736 / level-idc=50 / high-tier=1 / uhd-bd=0 / ref=3 / no-allow-non-conformance / no-repeat-headers / annexb / no-aud / no-hrd / info / hash=0 / no-temporal-layers / open-gop / min-keyint=23 / keyint=250 / gop-lookahead=0 / bframes=8 / b-adapt=2 / b-pyramid / bframe-bias=40 / rc-lookahead=80 / lookahead-slices=8 / scenecut=40 / radl=0 / no-splice / no-intra-refresh / ctu=64 / min-cu-size=8 / no-rect / no-amp / max-tu-size=32 / tu-inter-depth=1 / tu-intra-depth=1 / limit-tu=0 / rdoq-level=0 / dynamic-rd=0.00 / no-ssim-rd / signhide / no-tskip / nr-intra=0 / nr-inter=0 / no-constrained-intra / strong-intra-smoothing / max-merge=3 / limit-refs=1 / no-limit-modes / me=1 / subme=7 / merange=57 / temporal-mvp / no-frame-dup / no-hme / weightp / no-weightb / no-analyze-src-pics / deblock=-3:0 / sao / no-sao-non-deblock / rd=3 / selective-sao=4 / early-skip / rskip / no-fast-intra / no-tskip-fast / no-cu-lossless / b-intra / no-splitrd-skip / rdpenalty=0 / psy-rd=0.00 / psy-rdoq=0.00 / no-rd-refine / no-lossless / cbqpoffs=0 / crqpoffs=0 / rc=abr / bitrate=4750 / qcomp=0.60 / qpstep=4 / stats-write=0 / stats-read=0 / ipratio=1.40 / pbratio=1.30 / aq-mode=3 / aq-strength=0.40 / cutree / zone-count=0 / no-strict-cbr / qg-size=32 / no-rc-grain / qpmax=69 / qpmin=0 / no-const-vbv / sar=0 / overscan=0 / videoformat=5 / range=0 / colorprim=1 / transfer=1 / colormatrix=1 / chromaloc=0 / display-window=0 / cll=0,0 / min-luma=0 / max-luma=1023 / log2-max-poc-lsb=8 / vui-timing-info / vui-hrd-info / slices=1 / no-opt-qp-pps / no-opt-ref-list-length-pps / no-multi-pass-opt-rps / scenecut-bias=0.05 / no-opt-cu-delta-qp / no-aq-motion / no-hdr / no-hdr-opt / no-dhdr10-opt / no-idr-recovery-sei / analysis-reuse-level=5 / scale-factor=0 / refine-intra=0 / refine-inter=0 / refine-mv=1 / refine-ctu-distortion=0 / no-limit-sao / ctu-info=0 / no-lowpass-dct / refine-analysis-type=0 / copy-pic=1 / max-ausize-factor=1.0 / no-dynamic-refine / no-single-sei / no-hevc-aq / no-svt / no-field / qp-adaptation-range=1.00
  19. Color range : Limited
  20. Color primaries : BT.709
  21. Transfer characteristics : BT.709
  22. Matrix coefficients : BT.709

  23. Audio
  24. Format : E-AC-3
  25. Format/Info : Enhanced AC-3
  26. Commercial name : Dolby Digital Plus
  27. Codec ID : A_EAC3
  28. Duration : 2 h 23 min
  29. Bit rate mode : Constant
  30. Bit rate : 768 kb/s
  31. Channel(s) : 6 channels
  32. Channel layout : L R C LFE Ls Rs
  33. Sampling rate : 48.0 kHz
  34. Frame rate : 31.250 FPS (1536 SPF)
  35. Compression mode : Lossy
  36. Stream size : 789 MiB (14%)
  37. Language : Hindi

  38. Subtitle
  39. Format : UTF-8
  40. Codec ID : S_TEXT/UTF8
  41. Codec ID/Info : UTF-8 Plain Text
  42. Language : English
复制代码

万万没想到(台)/最初的梦想4k Chhichhore 2019 Hindi 2160p JPN BluRay x265 HEVC 10bit DDP 5.1印度电影下载

最初的梦想4k Chhichhore 2019 Hindi 2160p JPN BluRay x265 HEVC 10bit DDP 5.1【5.5 GB】
最初的梦想 4k.txt (93 Bytes)
回复

使用道具 举报

全部回复2

xxw8888 发表于 2021-2-8 12:16:57

xxw8888 沙发

2021-2-8 12:16:57

好看的电影,支持一下
回复 支持 反对

使用道具 举报

饕餮 发表于 2021-2-9 23:11:38

饕餮 板凳

2021-2-9 23:11:38

支持~
回复 支持 反对

使用道具 举报

   发表回复

您需要登录后才可以回帖 登录 | 立即注册

返回列表 本版积分规则

  • 在线客服

  • 返回顶部