微博 微信

Hao4K影音

电影频道
电影封面:
片  名: 太坏了4k
电影分类: 喜剧 
国  家: 美国 
年  代: 更早
分 辨 率: 4K(3840x2160)
电影格式: MKV|REMUX 
画质标准: HDR 
音质编码: Dolby Digital Audio 
电影声道: 5.1声道 
帧数/FPS: 23.976 FPS
电影语言: 英文原版 
资源大小: 2.8 GB
导  演: 格雷格·莫托拉
豆瓣评分: 6.9 分
中文字幕: -
剧情简介: 塞斯(乔纳•希尔 饰)和埃文(迈克尔•塞拉饰)是一对不善交际、性格迥异的好朋友,二人即将高中毕业,对没有彼此的大学生活既焦虑又恐惧。
  一个周末,二人的“桃花运”来了,因为他们收到了一个请柬,邀请他们去参加一个几乎完全是由漂亮女孩们主办的舞会,条件是他们要提供舞会上所需的各种酒类。令人讨厌的朋友弗盖尔(克里斯托弗•米恩特兹•普莱斯 饰)也加入到他们的行列,还给自己弄了一个假身份证,取了“迈克•拉文”这样愚蠢的假名。
  舞会上,塞斯盯上了舞会的组织者茱尔斯,埃文看上了 与他一起上数学课的女孩贝卡,弗盖尔则选择了装扮刺激的妮科拉。
  然而一系列不幸的巧合将三个人带到了一个陌生的地方,还让他们与斯莱特和迈克尔斯警官发生了冲突。对于三个即将高中毕业的小伙子来说,这可能是他们经历的最可怕、最让人感到羞愧的一个夜晚,然而,也是一个值得他们回忆一辈子的夜晚。
超级坏 / 太糟了 / 男孩不坏/太坏了4k Superbad  2007  2160p HDR 5.1 x265 10bit电影信息
  1. Video
  2. ID : 1
  3. Format : HEVC
  4. Format/Info : High Efficiency Video Coding
  5. Format profile : Main [email protected]@High
  6. Codec ID : V_MPEGH/ISO/HEVC
  7. Duration : 1 h 53 min
  8. Bit rate : 3 149 kb/s
  9. Width : 3 840 pixels
  10. Height : 2 072 pixels
  11. Display aspect ratio : 1.85:1
  12. Frame rate mode : Constant
  13. Frame rate : 23.976 (24000/1001) FPS
  14. Color space : YUV
  15. Chroma subsampling : 4:2:0
  16. Bit depth : 10 bits
  17. Bits/(Pixel*Frame) : 0.017
  18. Stream size : 2.49 GiB (89%)
  19. Writing library : x265 3.2.1+1-b5c86a64bbbe:[Windows][GCC 9.2.0][64 bit] 10bit
  20. Color range : Full
  21. Color primaries : BT.2020
  22. Transfer characteristics : PQ
  23. Matrix coefficients : BT.2020 non-constant

  24. Audio
  25. ID : 2
  26. Format : AC-3
  27. Format/Info : Audio Coding 3
  28. Commercial name : Dolby Digital
  29. Codec ID : A_AC3
  30. Duration : 1 h 53 min
  31. Bit rate mode : Constant
  32. Bit rate : 320 kb/s
  33. Channel(s) : 6 channels
  34. Channel layout : L R C LFE Ls Rs
  35. Sampling rate : 48.0 kHz
  36. Frame rate : 31.250 FPS (1536 SPF)
  37. Compression mode : Lossy
  38. Delay relative to video : 246 ms
  39. Stream size : 259 MiB (9%)
  40. Title : Surround
  41. Language : English

  42. Text
  43. Language : French
  44. Default : No
  45. Forced : No

  46. Menu
  47. 00:00:00.000 : :Opening Credits
  48. 00:01:26.753 : :Seth Picks Evan up
  49. 00:03:21.535 : :Seth Ogles Jane
  50. 00:04:10.917 : :Seth Parks in the Faculty Lot
  51. 00:04:42.949 : :Seth and Evan Discuss Hook Ups
  52. 00:07:43.129 : :Evan and Seth Fail at School
  53. 00:08:37.851 : :Evan Recalls His Weekend
  54. 00:11:01.995 : :Seth Needs a Partner for Home Ec
  55. 00:13:00.780 : :Jules Invites Seth to Her Party
  56. 00:15:42.275 : :Seth Explains Why He Hates Becca
  57. 00:16:46.339 : :Little Seth Draws Dicks
  58. 00:19:25.164 : :Jules Asks Seth for a Favor
  59. 00:21:05.264 : :Seth Interrupts Evan's Gym Class
  60. 00:23:09.388 : :Evan Offers to Buy Alcohol for Becca
  61. 00:24:36.141 : :Fogell Gets His ID
  62. 00:27:24.309 : :Seth Needs a Change of Clothes
  63. 00:28:16.361 : :Seth Wants the Booze Now
  64. 00:29:40.445 : :Seth Reviews His Options
  65. 00:31:52.577 : :Fogell Panics
  66. 00:33:50.028 : :Fogell Shops for Liquor
  67. 00:34:43.415 : :Seth and Evan Discuss Protection
  68. 00:36:04.829 : :Fogell Checks Out
  69. 00:37:48.933 : :The Police Interview Fogell
  70. 00:39:59.731 : :Seth and Evan Make New Plans
  71. 00:40:57.121 : :Old Enough to Party
  72. 00:42:42.560 : :Seth Blackmails Francis
  73. 00:44:19.991 : :The Guys Get Rides to Different Parties
  74. 00:45:28.059 : :Fogell Rides with the Cops
  75. 00:47:24.175 : :Seth and Evan Arrive at the Party
  76. 00:50:20.351 : :McLovin Helps Catch the Bad Guy
  77. 00:52:00.451 : :Seth Finds a Distraction
  78. 00:52:51.168 : :Becca Calls Evan
  79. 00:53:44.555 : :Seth Attempts to Steal Booze
  80. 00:54:35.272 : :The Guys at the Party Notice Something
  81. 00:56:38.061 : :McLovin Drinks with the Cops
  82. 00:59:31.568 : :Seth Hits the Motherload
  83. 01:00:03.600 : :The Druggies Mistake Evan for Someone Else
  84. 01:02:06.389 : :McLovin Has Beginner's Luck
  85. 01:03:39.816 : :Seth and Evan Try to Blend In
  86. 01:05:01.231 : :Mark Starts Another Fight
  87. 01:06:01.291 : :McLovin and the Cops Run from the Cops
  88. 01:07:22.705 : :Seth and Evan Argue
  89. 01:09:12.148 : :Seth Has More Bad Luck
  90. 01:11:58.981 : :Evan, Seth and McLovin Escape
  91. 01:15:47.209 : :McMuffin Runs into the Enemy
  92. 01:17:37.987 : :Seth Learns the Truth
  93. 01:18:30.039 : :The Guys Finally Arrive to the Party
  94. 01:20:07.469 : :The Boys Make Their Moves
  95. 01:21:38.227 : :Evan Finds Becca Outside
  96. 01:22:58.307 : :Jules Thanks Seth
  97. 01:24:22.391 : :Becca and Evan Hook Up
  98. 01:26:05.160 : :Jules and Seth Converse
  99. 01:27:26.575 : :Evan Can't Handle the Pressure
  100. 01:29:12.013 : :McLovin and Seth Are in Opposite Situations
  101. 01:30:48.109 : :The Cops Break Up the Party
  102. 01:32:29.544 : :The Cops Cockblock McLovin
  103. 01:34:49.684 : :Fogell Is Tougher than he Seems
  104. 01:35:36.397 : :Seth Saves Evan
  105. 01:36:23.111 : :McLovin and the Cops Destroy the Evidence
  106. 01:39:41.976 : :Seth and Evan Have a Heart to Heart
  107. 01:42:18.132 : :The Guys Wake Up
  108. 01:43:23.531 : :Seth Looks for Pants
  109. 01:44:18.252 : :Everyone Meets Up
  110. 01:48:13.153 : :End Credits
复制代码

超级坏 / 太糟了 / 男孩不坏/太坏了4k Superbad  2007  2160p HDR 5.1 x265 10bit电影下载

太坏了4k Superbad  2007  2160p HDR 5.1 x265 10bit【2.8 GB】
太坏了 4k.txt (89 Bytes)
回复

使用道具 举报

全部回复1

prp6666 发表于 2021-2-8 13:01:55

prp6666 沙发

2021-2-8 13:01:55

一个值得他们回忆一辈子
回复 支持 反对

使用道具 举报

   发表回复

您需要登录后才可以回帖 登录 | 立即注册

返回列表 本版积分规则

  • 在线客服

  • 返回顶部