微博 微信

Hao4K影音

电影频道
电影封面:
片  名: 逃出克隆岛4K
电影分类: 动作 科幻 惊悚 
国  家: 美国 
年  代: 00年代
分 辨 率: 4K(3840x2160)
电影格式: MKV|REMUX 
画质标准: SDR 
音质编码: DTS-HD Master Audio 
电影声道: 5.1声道 
帧数/FPS: 23.976 FPS
电影语言: 英文原版 
资源大小: 73.05 GB
导  演: 迈克尔·贝 Michael Bay
豆瓣评分: 6.8 分
中文字幕: -
剧情简介: 林肯(伊旺麦奎格)是一名住在彷彿世外桃源却拥有21世纪中叶先进科技的百姓,和所有其他居民一样,林肯希望自己雀屏中选成为神祕岛的访客,报导上说那是地球上最后一片净土,然而林肯随即发现所有他存在的证据全是谎言,他与设施内所有居民一样都是复制人,生存的唯一目的是提供给宿主一个备用身分。明白自己所剩时间不多,林肯大胆伙同一名美艳邻居(史嘉蕾裘韩森)展开逃亡,并寻找身世之谜。

  男青年林肯·6E(伊万·迈克格雷戈饰)以及乔丹·2D(斯嘉丽·约翰森)和数百名居民居住在二十一世纪中叶的一栋与世隔绝的社区。在这栋受到严密控管的高科技大楼中,他们和其它的居民一样,每天生活的一举一动都受到“组织”的监控,这种监控行为美其名约是为了他们的身心健康着想,而幕后却隐藏着不为人知的秘密。而想要离开这种没有自由的生活,唯一的希望就是被选中前往所谓的“小岛”。因为他们被告知,在历经一场生态浩劫之后,除了居住在这里的人将有幸得以生还外,全世界的人类都将罹难,而“小岛”就是地球仅存的未受污染的人间净土。

  但是林肯近来却一直做同一个无法解释的噩梦,他变得焦躁不安,而且对这个受到严格监控的生活环境产生极大的怀疑,这种好奇心竟然让他发现一个骇人的事实,那就是他生活的一切都是个谎言,“小岛”这座人间净土更是一个残酷的幌子,其实包括他和乔丹在内的所有居民,最后都难逃一死,他们都是“小岛”居民们的克隆人,他们的存在只是为了给他们的“原型”提供各种更换用的身体零件,他们死后的价值远比生前更高。就在危机降临之前,林肯和乔丹决定大胆地逃出这个虚伪的乌托邦,进入他们从来不知道的真实世界。他们逃到外面的世界,并远离“组织”的监控之后,这一对男女长久以来建立出来的情谊,逐渐转变成更深的感情,但是组织的势力强大,他们为了猎捕他们不择手对、不计代价,而林肯与乔丹则只有一个目标,那就是活下去……

  故事发生在距今并不遥远的二十一世纪中期,主角林肯6-E(伊万·迈克格雷格 饰)和几百个伙伴生活在一个类似于乌托邦的地下社会中,在他们周围是先进的精密仪器,有条不紊的生活节奏和高效智能的防御系统,虽然终日不见天日,但根据基地科学家的描述,在他们的头上,整个星球已经被核战彻底地污染,已经没有任何生物能够在那里生存。

  乌托邦的生活虽然一切井井有条,但自然和自由更令人向往,所有基地的居民都盼望著一个抽签的机会,幸运者将会被送到最后一个未被污染的地方,一个叫‘The Island’的世外桃源,而这一次获得这项荣誉的是林肯6-E的女朋友,美丽的乔丹2-D(斯嘉丽·约翰逊 饰)。由于基地管理者的疏忽,一只外面世界的飞蛾飞进了这座封闭已久的地下城市,它的出现令林肯6-E疑窦顿生,因为按照基地管理者的说法,所有的生物都在核战中灭绝了。

  在飞蛾的带领下,林肯6-E来到了基地的中心,在那里他看到自己从前被选中前往‘The Island’的朋友斯塔克威泽,但展现在面前的并非描述中的美丽,基地的科学家正为他施行手术,他的器官被取出送出基地,至此林肯6-E终于明白:自己的生活其实一个巨大的谎言,他们都是被克隆组织控制的克隆人,他们存在的意义只是为本体提供新鲜健康的器官。

  得以真相的林肯6-E带著乔丹2-D逃离基地,进入他们从未涉足的现实生活之中,现在他要前往洛杉基找到自己的本体,解开关于自己身世的最后的秘密,但此时国家特工和基地组织的杀手已经将他们锁定为最危险的目标,一场猎杀和抗争,追逐与逃脱的斗争已经拉开了序幕……
逃出克隆岛/神秘岛/谎岛叛变(俄版)4K蓝光REMUX 版本下载

  1. Media Info
  2. General

  3. Complete name :
  4. Format : Matroska
  5. Format version : Version 4
  6. File size : 73.0 GiB
  7. Duration : 2 h 16 min
  8. Overall bit rate mode : Variable
  9. Overall bit rate : 76.9 Mb/s
  10. Movie name : The.Island.2005.1080p.BluRay.x264.DTS-WiKi
  11. Encoded date : UTC 2020-12-08 23:01:24
  12. Writing application : mkvmerge v51.0.0 ('I Wish') 64-bit
  13. Writing library : libebml v1.4.0 + libmatroska v1.6.2

  14. Video
  15. ID : 1
  16. Format : AVC
  17. Format/Info : Advanced Video Codec
  18. Format profile : [url=mailto:Baseline@L5.1]Baseline@L5.1[/url]
  19. Format settings : 1 Ref Frames
  20. Format settings, CABAC : No
  21. Format settings, Reference fra : 1 frame
  22. Format settings, GOP : M=1, N=12
  23. Codec ID : V_MPEG4/ISO/AVC
  24. Duration : 2 h 16 min
  25. Bit rate : 66.0 Mb/s
  26. Width : 3 840 pixels
  27. Height : 2 160 pixels
  28. Display aspect ratio : 16:9
  29. Frame rate mode : Constant
  30. Frame rate : 23.976 (24000/1001) FPS
  31. Color space : YUV
  32. Chroma subsampling : 4:2:0
  33. Bit depth : 8 bits
  34. Scan type : Progressive
  35. Bits/(Pixel*Frame) : 0.332
  36. Stream size : 62.7 GiB (86%)
  37. Writing library : x264 core 157 r2970 5493be8
  38. Encoding settings : cabac=0 / ref=1 / deblock=0:0:0 / analyse=0:0 / me=dia / subme=0 / psy=1 / psy_rd=1.00:0.00 / mixed_ref=0 / me_range=16 / chroma_me=1 / trellis=0 / 8x8dct=0 / cqm=0 / deadzone=21,11 / fast_pskip=1 / chroma_qp_offset=0 / threads=8 / lookahead_threads=1 / sliced_threads=0 / nr=0 / decimate=1 / interlaced=0 / bluray_compat=0 / constrained_intra=0 / bframes=0 / weightp=0 / keyint=12 / keyint_min=1 / scenecut=0 / intra_refresh=0 / rc=crf / mbtree=0 / crf=17.0 / qcomp=0.60 / qpmin=0 / qpmax=69 / qpstep=4 / ip_ratio=1.40 / aq=0
  39. Default : Yes
  40. Forced : No
  41. Color range : Limited
  42. Color primaries : BT.709
  43. Transfer characteristics : BT.709
  44. Matrix coefficients : BT.709

  45. Audio #1
  46. ID : 2
  47. Format : AC-3
  48. Format/Info : Audio Coding 3
  49. Commercial name : Dolby Digital
  50. Codec ID : A_AC3
  51. Duration : 2 h 16 min
  52. Bit rate mode : Constant
  53. Bit rate : 640 kb/s
  54. Channel(s) : 6 channels
  55. Channel layout : L R C LFE Ls Rs
  56. Sampling rate : 48.0 kHz
  57. Frame rate : 31.250 FPS (1536 SPF)
  58. Compression mode : Lossy
  59. Stream size : 623 MiB (1%)
  60. Title : Dub
  61. Language : Russian
  62. Service kind : Complete Main
  63. Default : Yes
  64. Forced : Yes

  65. Audio #2
  66. ID : 3
  67. Format : DTS XLL
  68. Format/Info : Digital Theater Systems
  69. Commercial name : DTS-HD Master Audio
  70. Codec ID : A_DTS
  71. Duration : 2 h 16 min
  72. Bit rate mode : Variable
  73. Bit rate : 4 376 kb/s
  74. Channel(s) : 6 channels
  75. Channel layout : C L R Ls Rs LFE
  76. Sampling rate : 48.0 kHz
  77. Frame rate : 93.750 FPS (512 SPF)
  78. Bit depth : 24 bits
  79. Compression mode : Lossless
  80. Stream size : 4.16 GiB (6%)
  81. Title : MVO (Tycoon)
  82. Language : Russian
  83. Default : No
  84. Forced : No

  85. Audio #3
  86. ID : 4
  87. Format : AC-3
  88. Format/Info : Audio Coding 3
  89. Commercial name : Dolby Digital
  90. Codec ID : A_AC3
  91. Duration : 2 h 15 min
  92. Bit rate mode : Constant
  93. Bit rate : 384 kb/s
  94. Channel(s) : 6 channels
  95. Channel layout : L R C LFE Ls Rs
  96. Sampling rate : 48.0 kHz
  97. Frame rate : 31.250 FPS (1536 SPF)
  98. Compression mode : Lossy
  99. Delay relative to video : 4 s 620 ms
  100. Stream size : 373 MiB (0%)
  101. Title : AVO (Гаврилов)
  102. Language : Russian
  103. Service kind : Complete Main
  104. Default : No
  105. Forced : No

  106. Audio #4
  107. ID : 5
  108. Format : DTS
  109. Format/Info : Digital Theater Systems
  110. Codec ID : A_DTS
  111. Duration : 2 h 15 min
  112. Bit rate mode : Constant
  113. Bit rate : 755 kb/s
  114. Channel(s) : 6 channels
  115. Channel layout : C L R Ls Rs LFE
  116. Sampling rate : 48.0 kHz
  117. Frame rate : 93.750 FPS (512 SPF)
  118. Bit depth : 24 bits
  119. Compression mode : Lossy
  120. Delay relative to video : 4 s 622 ms
  121. Stream size : 734 MiB (1%)
  122. Title : AVO (Королев)
  123. Language : Russian
  124. Default : No
  125. Forced : No

  126. Audio #5
  127. ID : 6
  128. Format : AC-3
  129. Format/Info : Audio Coding 3
  130. Commercial name : Dolby Digital
  131. Codec ID : A_AC3
  132. Duration : 2 h 16 min
  133. Bit rate mode : Constant
  134. Bit rate : 192 kb/s
  135. Channel(s) : 2 channels
  136. Channel layout : L R
  137. Sampling rate : 48.0 kHz
  138. Frame rate : 31.250 FPS (1536 SPF)
  139. Compression mode : Lossy
  140. Delay relative to video : 4 s 600 ms
  141. Stream size : 187 MiB (0%)
  142. Title : Dub
  143. Language : Ukrainian
  144. Service kind : Complete Main
  145. Default : No
  146. Forced : No

  147. Audio #6
  148. ID : 7
  149. Format : DTS XLL
  150. Format/Info : Digital Theater Systems
  151. Commercial name : DTS-HD Master Audio
  152. Codec ID : A_DTS
  153. Duration : 2 h 16 min
  154. Bit rate mode : Variable
  155. Bit rate : 4 391 kb/s
  156. Channel(s) : 6 channels
  157. Channel layout : C L R Ls Rs LFE
  158. Sampling rate : 48.0 kHz
  159. Frame rate : 93.750 FPS (512 SPF)
  160. Bit depth : 24 bits
  161. Compression mode : Lossless
  162. Stream size : 4.17 GiB (6%)
  163. Title : Original
  164. Language : English
  165. Default : No
  166. Forced : No

  167. Audio #7
  168. ID : 8
  169. Format : AC-3
  170. Format/Info : Audio Coding 3
  171. Commercial name : Dolby Digital
  172. Codec ID : A_AC3
  173. Duration : 2 h 16 min
  174. Bit rate mode : Constant
  175. Bit rate : 128 kb/s
  176. Channel(s) : 2 channels
  177. Channel layout : L R
  178. Sampling rate : 48.0 kHz
  179. Frame rate : 31.250 FPS (1536 SPF)
  180. Compression mode : Lossy
  181. Stream size : 125 MiB (0%)
  182. Title : Comments
  183. Language : English
  184. Service kind : Complete Main
  185. Default : No
  186. Forced : No

  187. Text #1
  188. ID : 9
  189. Format : UTF-8
  190. Codec ID : S_TEXT/UTF8
  191. Codec ID/Info : UTF-8 Plain Text
  192. Duration : 2 h 1 min
  193. Bit rate : 0 b/s
  194. Count of elements : 26
  195. Stream size : 883 Bytes (0%)
  196. Title : Forced
  197. Language : Russian
  198. Default : Yes
  199. Forced : Yes

  200. Text #2
  201. ID : 10
  202. Format : UTF-8
  203. Codec ID : S_TEXT/UTF8
  204. Codec ID/Info : UTF-8 Plain Text
  205. Duration : 2 h 15 min
  206. Bit rate : 71 b/s
  207. Count of elements : 1390
  208. Stream size : 71.1 KiB (0%)
  209. Title : Full
  210. Language : Russian
  211. Default : No
  212. Forced : No

  213. Text #3
  214. ID : 11
  215. Format : UTF-8
  216. Codec ID : S_TEXT/UTF8
  217. Codec ID/Info : UTF-8 Plain Text
  218. Duration : 2 h 13 min
  219. Bit rate : 48 b/s
  220. Count of elements : 1386
  221. Stream size : 47.8 KiB (0%)
  222. Title : Full
  223. Language : English
  224. Default : No
  225. Forced : No

  226. Text #4
  227. ID : 12
  228. Format : UTF-8
  229. Codec ID : S_TEXT/UTF8
  230. Codec ID/Info : UTF-8 Plain Text
  231. Duration : 2 h 3 min
  232. Bit rate : 53 b/s
  233. Count of elements : 1490
  234. Stream size : 48.1 KiB (0%)
  235. Title : Full
  236. Language : French
  237. Default : No
  238. Forced : No

  239. Text #5
  240. ID : 13
  241. Format : UTF-8
  242. Codec ID : S_TEXT/UTF8
  243. Codec ID/Info : UTF-8 Plain Text
  244. Duration : 2 h 4 min
  245. Bit rate : 49 b/s
  246. Count of elements : 1395
  247. Stream size : 45.1 KiB (0%)
  248. Title : Full
  249. Language : Spanish
  250. Default : No
  251. Forced : No
复制代码


提示:请不要用废青迅雷下载,关于下载流量大小是个人水管、人品、下载姿势问题,推荐使用qBittorrent等下载软件,有条件的推荐115更好的下载软件!不接受任何下载问题差评,资源来源不易,你回复就是我发帖的动力,有什么稀资源有索取或探讨,请内信告知,谢谢!
逃出克隆岛(73.05GB)Island, The.2005.BDREMUX.AI_UPSCALE_3840x2160_alq-8_SDR_Fin
游客,如果您要查看本帖隐藏内容请回复

全网首发俄版4K蓝光REMUX资源,不喜勿下!

回复

使用道具 举报

qzy4057 发表于 2021-2-14 12:00:50

qzy4057 推荐

2021-2-14 12:00:50

逃出克隆岛4k.The.Island.2005.1080p.BluRay.x264.DTS(俄版)4K蓝光REMUX 版本下载 [修改]
回复 支持 反对

使用道具 举报

jaghbobo 发表于 2021-2-25 06:15:06

jaghbobo 推荐

2021-2-25 06:15:06

逃出克隆岛4k.The.Island.2005.1080p.BluRay.x264.DTS(俄版)4K蓝光REMUX 版本下载
回复 支持 反对

使用道具 举报

ericlee5300 发表于 2021-2-8 14:09:10

ericlee5300 地板

2021-2-8 14:09:10

谢谢分享。。。
回复 支持 反对

使用道具 举报

nbmsa 发表于 2021-2-8 14:47:17

nbmsa 5#

2021-2-8 14:47:17

来之不易 且行且珍惜  谢谢
回复 支持 反对

使用道具 举报

ywf6168 发表于 2021-2-8 15:22:58

ywf6168 6#

2021-2-8 15:22:58

好片 , 谢谢分享
回复 支持 反对

使用道具 举报

jxdvip 发表于 2021-2-8 15:28:07

jxdvip 7#

2021-2-8 15:28:07

感谢分享经典好片!
回复 支持 反对

使用道具 举报

liuzhiwen1964 发表于 2021-2-8 15:47:29

liuzhiwen1964 8#

2021-2-8 15:47:29

非常感谢楼主
回复 支持 反对

使用道具 举报

18520199909 发表于 2021-2-8 16:11:11 Hao4K手机版

18520199909 9#

2021-2-8 16:11:11

谢谢分享!!!
回复 支持 反对

使用道具 举报

yrh100 发表于 2021-2-8 16:15:12 Hao4K手机版

yrh100 10#

2021-2-8 16:15:12

太好了,过年又有电影看
回复 支持 反对

使用道具 举报

小竹 发表于 2021-2-8 16:36:16

小竹 11#

2021-2-8 16:36:16

谢谢分享
回复 支持 反对

使用道具 举报

hk1560777 发表于 2021-2-8 17:05:23

hk1560777 12#

2021-2-8 17:05:23

看看怎么样
回复 支持 反对

使用道具 举报

苏默金武 发表于 2021-2-8 17:07:37

苏默金武 13#

2021-2-8 17:07:37

都是经典作品!!!
回复 支持 反对

使用道具 举报

qjyesc 发表于 2021-2-8 17:20:15

qjyesc 14#

2021-2-8 17:20:15

感谢分享
回复 支持 反对

使用道具 举报

hnl2009 发表于 2021-2-8 17:39:01

hnl2009 15#

2021-2-8 17:39:01

值得一看
回复 支持 反对

使用道具 举报

Anlolo 发表于 2021-2-8 18:32:12

Anlolo 16#

2021-2-8 18:32:12

wow. 瞧一眼咯
回复 支持 反对

使用道具 举报

chnwxck 发表于 2021-2-8 19:28:36

chnwxck 17#

2021-2-8 19:28:36

非常非常感谢
回复 支持 反对

使用道具 举报

18918158768 发表于 2021-2-8 19:28:55

18918158768 18#

2021-2-8 19:28:55

thanks for shairg
回复 支持 反对

使用道具 举报

antao423 发表于 2021-2-8 19:39:43

antao423 19#

2021-2-8 19:39:43

谢谢分享!
回复 支持 反对

使用道具 举报

lxf83th 发表于 2021-2-8 19:53:27

lxf83th 20#

2021-2-8 19:53:27

很喜欢的一部科幻片,有4K的一定要再看看。
回复 支持 反对

使用道具 举报

   发表回复

您需要登录后才可以回帖 登录 | 立即注册

返回列表 本版积分规则

  • 在线客服

  • 返回顶部