微博 微信

Hao4K影音

电影频道
电影封面:
片  名: 《沙漠白日(俄版)》4K蓝光REMUX 版本下载
电影分类: 动作 战争 
国  家: 俄罗斯 
年  代: 70年代
分 辨 率: 4K(3840x2160)
电影格式: MKV|REMUX 
画质标准: SDR 
音质编码: DTS Audio 
电影声道: 5.1声道 
帧数/FPS: 23.976 FPS
电影语言: 英文原版 
资源大小: 45.68 GB
导  演: 弗拉基米尔·莫特尔(Vladimir Motyl)
豆瓣评分: 7.3 分
中文字幕: /thread-54101-1-1.html
剧情简介: ◎简  介 

红 军战士苏哈夫连续几年在俄罗斯内战中奋勇作战,立下了赫赫战功。就在他要回家的路上,却阴差阳错地被要求护卫一群土匪头子(阿卜杜拉)的妻妾。原来,红军 正在追击阿卜杜拉,阿卜杜拉嫌妻妾们碍事就把她们扔下了。苏哈夫眼前是一群美貌的东方女性,心里却思念着妻子,归心似箭……一部70年代的电影,歌颂了那 个时代的英雄主义,却又不失幽默。
Media info
General
Complete name : 沙漠白日(45.68GB)pustyni.1969.BDREMUX.AI_UPSCALE_3840x2160_ahq 10_SDR_Final.
Format : Matroska
Format version : Version 4
File size : 45.7 GiB
Duration : 1 h 23 min
Overall bit rate mode : Variable
Overall bit rate : 78.3 Mb/s
Encoded date : UTC 2021-02-01 10:23:05
Writing application : mkvmerge v53.0.0 ('Fool's Gold') 64-bit
Writing library : libebml v1.4.1 + libmatroska v1.6.2

Video
ID : 1
Format : AVC
Format/Info : Advanced Video Codec
Format profile : Baseline@L5.1
Format settings : 1 Ref Frames
Format settings, CABAC : No
Format settings, Reference fra : 1 frame
Format settings, GOP : M=1, N=12
Codec ID : V_MPEG4/ISO/AVC
Duration : 1 h 23 min
Bit rate : 73.1 Mb/s
Width : 3 840 pixels
Height : 2 160 pixels
Display aspect ratio : 16:9
Frame rate mode : Constant
Frame rate : 23.976 (24000/1001) FPS
Color space : YUV
Chroma subsampling : 4:2:0
Bit depth : 8 bits
Scan type : Progressive
Bits/(Pixel*Frame) : 0.368
Stream size : 42.7 GiB (93%)
Writing library : x264 core 157 r2970 5493be8
Encoding settings : cabac=0 / ref=1 / deblock=0:0:0 / analyse=0:0 / me=dia / subme=0 / psy=1 / psy_rd=1.00:0.00 / mixed_ref=0 / me_range=16 / chroma_me=1 / trellis=0 / 8x8dct=0 / cqm=0 / deadzone=21,11 / fast_pskip=1 / chroma_qp_offset=0 / threads=8 / lookahead_threads=1 / sliced_threads=0 / nr=0 / decimate=1 / interlaced=0 / bluray_compat=0 / constrained_intra=0 / bframes=0 / weightp=0 / keyint=12 / keyint_min=1 / scenecut=0 / intra_refresh=0 / rc=crf / mbtree=0 / crf=16.0 / qcomp=0.60 / qpmin=0 / qpmax=69 / qpstep=4 / ip_ratio=1.40 / aq=0
Default : Yes
Forced : No
Color range : Limited
Color primaries : BT.709
Transfer characteristics : BT.709
Matrix coefficients : BT.709

Audio #1
ID : 2
Format : DTS XLL
Format/Info : Digital Theater Systems
Commercial name : DTS-HD Master Audio
Codec ID : A_DTS
Duration : 1 h 23 min
Bit rate mode : Variable
Bit rate : 3 578 kb/s
Channel(s) : 6 channels
Channel layout : C L R Ls Rs LFE
Sampling rate : 48.0 kHz
Frame rate : 93.750 FPS (512 SPF)
Bit depth : 24 bits
Compression mode : Lossless
Stream size : 2.09 GiB (5%)
Language : Russian
Default : Yes
Forced : Yes

Audio #2
ID : 3
Format : AC-3
Format/Info : Audio Coding 3
Commercial name : Dolby Digital
Codec ID : A_AC3
Duration : 1 h 23 min
Bit rate mode : Constant
Bit rate : 448 kb/s
Channel(s) : 6 channels
Channel layout : L R C LFE Ls Rs
Sampling rate : 48.0 kHz
Frame rate : 31.250 FPS (1536 SPF)
Compression mode : Lossy
Stream size : 268 MiB (1%)
Language : Russian
Service kind : Complete Main
Default : No
Forced : No

Audio #3
ID : 4
Format : PCM
Format settings : Little / Signed
Codec ID : A_PCM/INT/LIT
Duration : 1 h 23 min
Bit rate mode : Constant
Bit rate : 1 152 kb/s
Channel(s) : 1 channel
Sampling rate : 48.0 kHz
Frame rate : 200.000 FPS (240 SPF)
Bit depth : 24 bits
Stream size : 688 MiB (1%)
Language : Russian
Default : No
Forced : No

Menu
00:00:00.000 : :Глава 01
00:03:00.000 : :Глава 02
00:06:00.000 : :Глава 03
00:09:00.000 : :Глава 04
00:12:00.000 : :Глава 05
00:15:00.000 : :Глава 06
00:18:00.000 : :Глава 07
00:21:00.000 : :Глава 08
00:24:00.000 : :Глава 09
00:27:00.000 : :Глава 10
00:30:00.000 : :Глава 11
00:33:00.000 : :Глава 12
00:36:00.000 : :Глава 13
00:39:00.000 : :Глава 14
00:42:00.000 : :Глава 15
00:45:00.000 : :Глава 16
00:48:00.000 : :Глава 17
00:51:00.000 : :Глава 18
00:54:00.000 : :Глава 19
00:57:00.000 : :Глава 20
01:00:00.000 : :Глава 21
01:03:00.000 : :Глава 22
01:06:00.000 : :Глава 23
01:09:00.000 : :Глава 24
01:12:00.000 : :Глава 25
01:15:00.000 : :Глава 26
01:18:00.000 : :Глава 27
01:21:00.000 : :Глава 28



提示:请不要用废青迅雷下载,关于下载流量大小是个人水管、人品、下载姿势问题,推荐使用qBittorrent等下载软件,有条件的推荐115更好的下载软件!不接受任何下载问题差评,资源来源不易,你回复就是我发帖的动力,有什么稀资源有索取或探讨,请内信告知,谢谢!
沙漠白日(45.68GB)pustyni.1969.BDREMUX.AI_UPSCALE_3840x2160_ahq 10_SDR_Finaljian
游客,如果您要查看本帖隐藏内容请回复


全网首发俄版4K蓝光REMUX资源,不喜勿下!




回复

使用道具 举报

苏默金武 发表于 2021-2-11 02:50:20

苏默金武 推荐

2021-2-11 02:50:20

https://www.hao4k.cn/thread-54101-1-1.html 已提供中文字幕下载!!!
回复 支持 反对

使用道具 举报

sk88888 发表于 2021-2-13 13:40:00

sk88888 推荐

2021-2-13 13:40:00

前苏联4K电影不多,资源来之不易,感谢分享
回复 支持 反对

使用道具 举报

chnwxck 发表于 2021-2-8 19:28:02

chnwxck 地板

2021-2-8 19:28:02

非常非常感谢
回复 支持 反对

使用道具 举报

苏默金武 发表于 2021-2-8 19:54:03

苏默金武 5#

2021-2-8 19:54:03

好资源,顶一个!!!
回复 支持 反对

使用道具 举报

dzl1968 发表于 2021-2-8 20:48:22

dzl1968 6#

2021-2-8 20:48:22

下来看盾.....................................
回复 支持 反对

使用道具 举报

xionghz 发表于 2021-2-8 20:56:08

xionghz 7#

2021-2-8 20:56:08

试看一下,,看效果如何
回复 支持 反对

使用道具 举报

hg_58 发表于 2021-2-8 20:59:44

hg_58 8#

2021-2-8 20:59:44

链接
回复 支持 反对

使用道具 举报

涛ge 发表于 2021-2-8 22:59:55

涛ge 9#

2021-2-8 22:59:55

好东西 谢谢
回复 支持 反对

使用道具 举报

nbmsa 发表于 2021-2-9 00:13:12

nbmsa 10#

2021-2-9 00:13:12

谢谢。。。。
回复 支持 反对

使用道具 举报

cxaolin 发表于 2021-2-9 06:06:52

cxaolin 11#

2021-2-9 06:06:52

战争片还是蛮喜欢的,谢谢
回复 支持 反对

使用道具 举报

lywzj238 发表于 2021-2-9 07:20:25

lywzj238 12#

2021-2-9 07:20:25

谢谢分享好电影
回复 支持 反对

使用道具 举报

lchlxx 发表于 2021-2-9 07:35:27

lchlxx 13#

2021-2-9 07:35:27

谢谢楼主分享
回复 支持 反对

使用道具 举报

小虫子2 发表于 2021-2-9 08:15:09

小虫子2 14#

2021-2-9 08:15:09

很期待很期待
回复 支持 反对

使用道具 举报

ZJZ010 发表于 2021-2-9 08:27:54

ZJZ010 15#

2021-2-9 08:27:54


试看一下,,看效果如何
回复 支持 反对

使用道具 举报

随风姚 发表于 2021-2-9 08:45:13

随风姚 16#

2021-2-9 08:45:13

谢谢分享
回复 支持 反对

使用道具 举报

薄荷茶 发表于 2021-2-9 08:52:18

薄荷茶 17#

2021-2-9 08:52:18

多谢分享
回复 支持 反对

使用道具 举报

jssll 发表于 2021-2-9 09:55:46

jssll 18#

2021-2-9 09:55:46

资源来之不易,感谢分享
回复 支持 反对

使用道具 举报

plyz 发表于 2021-2-9 10:20:16

plyz 19#

2021-2-9 10:20:16

可以啊,下来看看
回复 支持 反对

使用道具 举报

37976745wjh 发表于 2021-2-9 10:41:16

37976745wjh 20#

2021-2-9 10:41:16

谢谢你的资源
回复 支持 反对

使用道具 举报

   发表回复

您需要登录后才可以回帖 登录 | 立即注册

返回列表 本版积分规则

  • 在线客服

  • 返回顶部