微博 微信

Hao4K影音

电影频道
电影封面:
片  名: 少壮屠龙阵4k
电影分类: 动作 犯罪 惊悚 喜剧 西部 
国  家: 美国 
年  代: 80年代
分 辨 率: 4K(3840x2160)
电影格式: MKV|REMUX 
画质标准: 其他 
音质编码: 其他AAC 
电影声道: 5.1声道 
帧数/FPS: 24.000 FPS
电影语言: 英文原版 
资源大小: 5 GB
导  演: 克里斯托弗·凯恩
豆瓣评分: 6.7 分
中文字幕: -
剧情简介: 在一个没有法律又充满暴力的年代,一个英国商人手下有六位年轻流浪汉,为了自己的家园,为了报仇,在法律无法制裁凶手时,六个人毅然向那批杀人犯宣战,从此展开一场无法回头的战斗。
年轻枪手/少壮屠龙阵4k Young Guns 1988  2160p luRay AI x265 HEVC 10bit EAC3 5.1电影信息
  1. Video
  2. ID : 1
  3. Format : HEVC
  4. Format/Info : High Efficiency Video Coding
  5. Codec ID : V_MPEGH/ISO/HEVC
  6. Duration : 1 h 46 min
  7. Bit rate : 6 000 kb/s
  8. Width : 3 840 pixels
  9. Height : 2 080 pixels
  10. Display aspect ratio : 1.85:1
  11. Frame rate mode : Constant
  12. Frame rate : 24.000 FPS
  13. Color space : YUV
  14. Chroma subsampling : 4:2:0
  15. Bit depth : 10 bits
  16. Bits/(Pixel*Frame) : 0.031
  17. Stream size : 4.47 GiB (90%)
  18. Writing library : x265M - 3.4+28-419182243:[Windows][GCC 10.2.0][64 bit] 10bit
  19. Encoding settings : cpuid=1111039 / frame-threads=4 / numa-pools=24 / wpp / no-pmode / no-pme / no-psnr / ssim / log-level=2 / input-csp=1 / input-res=3840x2080 / interlace=0 / total-frames=153480 / level-idc=0 / high-tier=1 / uhd-bd=0 / ref=4 / no-allow-non-conformance / no-repeat-headers / annexb / no-aud / no-hrd / info / hash=0 / no-temporal-layers / open-gop / min-keyint=24 / keyint=250 / gop-lookahead=0 / bframes=4 / b-adapt=2 / b-pyramid / bframe-bias=0 / rc-lookahead=25 / lookahead-slices=4 / scenecut=40 / hist-scenecut=0 / radl=0 / no-splice / no-intra-refresh / ctu=64 / min-cu-size=8 / no-rect / no-amp / max-tu-size=32 / tu-inter-depth=1 / tu-intra-depth=1 / limit-tu=0 / rdoq-level=2 / dynamic-rd=0.00 / ssim-rd / signhide / no-tskip / nr-intra=0 / nr-inter=0 / no-constrained-intra / strong-intra-smoothing / max-merge=3 / limit-refs=3 / limit-modes / me=3 / subme=3 / merange=57 / temporal-mvp / no-frame-dup / no-hme / weightp / no-weightb / no-analyze-src-pics / deblock=0:0 / sao / no-sao-non-deblock / rd=4 / selective-sao=4 / early-skip / rskip / no-fast-intra / no-tskip-fast / no-cu-lossless / no-b-intra / splitrd-skip / rdpenalty=0 / psy-rd=0.00 / psy-rdoq=0.00 / no-rd-refine / no-lossless / cbqpoffs=0 / crqpoffs=0 / rc=abr / bitrate=6000 / qcomp=0.60 / qpstep=4 / stats-write=0 / stats-read=2 / cplxblur=20.0 / qblur=0.5 / ipratio=1.40 / pbratio=1.30 / aq-mode=3 / aq-strength=0.40 / cutree / zone-count=0 / no-strict-cbr / qg-size=32 / no-rc-grain / qpmax=69 / qpmin=0 / no-const-vbv / sar=0 / overscan=0 / videoformat=5 / range=0 / colorprim=1 / transfer=1 / colormatrix=1 / chromaloc=0 / display-window=0 / cll=0,0 / min-luma=0 / max-luma=1023 / log2-max-poc-lsb=8 / vui-timing-info / vui-hrd-info / slices=1 / no-opt-qp-pps / no-opt-ref-list-length-pps / multi-pass-opt-rps / scenecut-bias=0.05 / hist-threshold=0.03 / no-opt-cu-delta-qp / no-aq-motion / no-hdr10 / no-hdr10-opt / no-dhdr10-opt / no-idr-recovery-sei / analysis-load / analysis-reuse-level=0 / analysis-save-reuse-level=0 / analysis-load-reuse-level=10 / scale-factor=0 / refine-intra=0 / refine-inter=0 / refine-mv=1 / refine-ctu-distortion=0 / no-limit-sao / ctu-info=0 / no-lowpass-dct / refine-analysis-type=0 / copy-pic=1 / max-ausize-factor=1.0 / no-dynamic-refine / no-single-sei / no-hevc-aq / no-svt / no-field / qp-adaptation-range=1.00 / scenecut-aware-qp / scenecut-window=500 / qp-delta-ref=5.000000 / qp-delta-nonref=6.500000conformance-window-offsets / right=0 / bottom=0 / decoder-max-rate=0 / no-vbv-live-multi-pass
  20. Default : Yes
  21. Forced : No
  22. Color range : Limited
  23. Color primaries : BT.709
  24. Transfer characteristics : BT.709
  25. Matrix coefficients : BT.709

  26. Audio
  27. ID : 2
  28. Format : E-AC-3
  29. Format/Info : Enhanced Audio Coding 3
  30. Format settings, Endianness : Big
  31. Codec ID : A_EAC3
  32. Duration : 1 h 46 min
  33. Bit rate mode : Constant
  34. Bit rate : 640 kb/s
  35. Channel(s) : 6 channels
  36. Channel positions : Front: L C R, Side: L R, LFE
  37. Sampling rate : 48.0 kHz
  38. Frame rate : 187.500 FPS (256 spf)
  39. Compression mode : Lossy
  40. Stream size : 488 MiB (10%)
  41. Language : English
  42. Default : No
  43. Forced : No

  44. Subtitle #1
  45. ID : 3
  46. Format : VobSub
  47. Muxing mode : zlib
  48. Codec ID : S_VOBSUB
  49. Codec ID/Info : Picture based subtitle format used on DVDs
  50. Duration : 1 h 41 min
  51. Bit rate : 5 796 b/s
  52. Count of elements : 868
  53. Stream size : 4.21 MiB (0%)
  54. Language : Swedish
  55. Default : No
  56. Forced : No

  57. Subtitle #2
  58. ID : 4
  59. Format : VobSub
  60. Muxing mode : zlib
  61. Codec ID : S_VOBSUB
  62. Codec ID/Info : Picture based subtitle format used on DVDs
  63. Duration : 1 h 41 min
  64. Bit rate : 5 797 b/s
  65. Count of elements : 867
  66. Stream size : 4.21 MiB (0%)
  67. Language : Danish
  68. Default : No
  69. Forced : No

  70. Subtitle #3
  71. ID : 5
  72. Format : VobSub
  73. Muxing mode : zlib
  74. Codec ID : S_VOBSUB
  75. Codec ID/Info : Picture based subtitle format used on DVDs
  76. Duration : 1 h 41 min
  77. Bit rate : 5 711 b/s
  78. Count of elements : 867
  79. Stream size : 4.15 MiB (0%)
  80. Language : Norwegian Bokmal
  81. Default : No
  82. Forced : No

  83. Subtitle #4
  84. ID : 6
  85. Format : VobSub
  86. Muxing mode : zlib
  87. Codec ID : S_VOBSUB
  88. Codec ID/Info : Picture based subtitle format used on DVDs
  89. Duration : 1 h 41 min
  90. Bit rate : 5 780 b/s
  91. Count of elements : 867
  92. Stream size : 4.20 MiB (0%)
  93. Language : Finnish
  94. Default : No
  95. Forced : No

  96. Subtitle #5
  97. ID : 7
  98. Format : UTF-8
  99. Codec ID : S_TEXT/UTF8
  100. Codec ID/Info : UTF-8 Plain Text
  101. Duration : 1 h 43 min
  102. Bit rate : 74 b/s
  103. Count of elements : 1088
  104. Stream size : 56.6 KiB (0%)
  105. Language : Persian
  106. Default : No
  107. Forced : No

  108. Subtitle #6
  109. ID : 8
  110. Format : UTF-8
  111. Codec ID : S_TEXT/UTF8
  112. Codec ID/Info : UTF-8 Plain Text
  113. Duration : 1 h 42 min
  114. Bit rate : 61 b/s
  115. Count of elements : 1303
  116. Stream size : 46.1 KiB (0%)
  117. Language : Vietnamese
  118. Default : No
  119. Forced : No

  120. Subtitle #7
  121. ID : 9
  122. Format : UTF-8
  123. Codec ID : S_TEXT/UTF8
  124. Codec ID/Info : UTF-8 Plain Text
  125. Duration : 1 h 40 min
  126. Bit rate : 57 b/s
  127. Count of elements : 1083
  128. Stream size : 42.6 KiB (0%)
  129. Language : Indonesian
  130. Default : No
  131. Forced : No

  132. Subtitle #8
  133. ID : 10
  134. Format : UTF-8
  135. Codec ID : S_TEXT/UTF8
  136. Codec ID/Info : UTF-8 Plain Text
  137. Duration : 1 h 41 min
  138. Bit rate : 44 b/s
  139. Count of elements : 869
  140. Stream size : 32.8 KiB (0%)
  141. Language : Swedish
  142. Default : No
  143. Forced : No

  144. Subtitle #9
  145. ID : 11
  146. Format : UTF-8
  147. Codec ID : S_TEXT/UTF8
  148. Codec ID/Info : UTF-8 Plain Text
  149. Duration : 1 h 46 min
  150. Bit rate : 102 b/s
  151. Count of elements : 1201
  152. Stream size : 80.2 KiB (0%)
  153. Language : Thai
  154. Default : No
  155. Forced : No

  156. Menu
  157. 00:00:00.000 : en:Chapter 01
  158. 00:10:07.750 : en:Chapter 02
  159. 00:16:09.125 : en:Chapter 03
  160. 00:25:52.166 : en:Chapter 04
  161. 00:38:58.416 : en:Chapter 05
  162. 00:44:20.083 : en:Chapter 06
  163. 00:55:31.541 : en:Chapter 07
  164. 01:07:10.375 : en:Chapter 08
  165. 01:12:50.208 : en:Chapter 09
  166. 01:19:55.541 : en:Chapter 10
  167. 01:30:45.416 : en:Chapter 11
  168. 01:43:01.916 : en:Chapter 12
复制代码

年轻枪手/少壮屠龙阵4k Young Guns 1988  2160p luRay AI x265 HEVC 10bit EAC3 5.1电影下载

少壮屠龙阵4k Young Guns 1988  2160p luRay AI x265 HEVC 10bit EAC3 5.1【5 GB】
少壮屠龙阵4k.txt (92 Bytes)
回复

使用道具 举报

全部回复2

xxw8888 发表于 2021-2-10 14:33:49

xxw8888 沙发

2021-2-10 14:33:49

谢谢分享
回复 支持 反对

使用道具 举报

binglan 发表于 2021-2-13 20:54:12

binglan 板凳

2021-2-13 20:54:12


多谢分享~新年快乐!
回复 支持 反对

使用道具 举报

   发表回复

您需要登录后才可以回帖 登录 | 立即注册

返回列表 本版积分规则

  • 在线客服

  • 返回顶部