微博 微信

Hao4K影音

电影频道
电影封面:
片  名: 绝密飞行4k
电影分类: 动作 科幻 冒险 
国  家: 美国 
年  代: 00年代
分 辨 率: 4K(3840x2160)
电影格式: MKV|REMUX 
画质标准: 其他 
音质编码: 其他AAC 
电影声道: 5.1声道 
帧数/FPS: 23.976 FPS
电影语言: 英文原版 
资源大小: 5.5 GB
导  演: 罗伯·科恩
豆瓣评分: 6.7 分
中文字幕: -
剧情简介: 本(乔什•卢卡斯 Josh Lucas 饰)、凯拉(杰西卡•贝尔 Jessica Biel 饰)和亨利(杰米•福克斯 Jamie Foxx 饰)都是顶尖出色的飞行员。这天,他们接到了一项秘密任务:训练他们的新伙伴"铁蛋"。出人意料的是,"铁蛋"竟然是一架全智能的无人驾驶飞机,他们的任务就是把它训练成为锋利的尖刀。在完成一次飞行任务后,"铁蛋"意外被闪电击中,"铁蛋"因此拥有了情感了自主性。在随后的任务中,总部对当时情况进行考虑后打算放弃任务,岂料"铁蛋"突然飞离编队,将钻地炸弹投入了敌人的核武器库,造成一场前所未有的核灾难。
  队长本意识到这样一个智能杀人机器必须立即被摧毁,否则会给人类带来更多的灾难,他立即向总部作了汇报。聪明的"铁蛋"获悉他们的行动,于是一场人机追逐战展开了!
机战未来 / 智能杀机/绝密飞行4k Stealth  2005 2160p BluRay AI x265 HEVC 10bit AC3 5.1 电影下载
  1. Video
  2. ID : 1
  3. Format : HEVC
  4. Format/Info : High Efficiency Video Coding
  5. Codec ID : V_MPEGH/ISO/HEVC
  6. Duration : 2 h 0 min
  7. Bit rate : 6 000 kb/s
  8. Width : 3 840 pixels
  9. Height : 1 600 pixels
  10. Display aspect ratio : 2.40:1
  11. Frame rate mode : Constant
  12. Frame rate : 23.976 (24000/1001) FPS
  13. Color space : YUV
  14. Chroma subsampling : 4:2:0
  15. Bit depth : 10 bits
  16. Bits/(Pixel*Frame) : 0.041
  17. Stream size : 5.06 GiB (92%)
  18. Writing library : x265M - 3.4+28-419182243:[Windows][GCC 10.2.0][64 bit] 10bit
  19. Encoding settings : cpuid=1111039 / frame-threads=4 / numa-pools=24 / wpp / no-pmode / no-pme / no-psnr / ssim / log-level=2 / input-csp=1 / input-res=3840x1600 / interlace=0 / total-frames=173682 / level-idc=0 / high-tier=1 / uhd-bd=0 / ref=4 / no-allow-non-conformance / no-repeat-headers / annexb / no-aud / no-hrd / info / hash=0 / no-temporal-layers / open-gop / min-keyint=23 / keyint=250 / gop-lookahead=0 / bframes=4 / b-adapt=2 / b-pyramid / bframe-bias=0 / rc-lookahead=25 / lookahead-slices=4 / scenecut=40 / hist-scenecut=0 / radl=0 / no-splice / no-intra-refresh / ctu=64 / min-cu-size=8 / no-rect / no-amp / max-tu-size=32 / tu-inter-depth=1 / tu-intra-depth=1 / limit-tu=0 / rdoq-level=2 / dynamic-rd=0.00 / ssim-rd / signhide / no-tskip / nr-intra=0 / nr-inter=0 / no-constrained-intra / strong-intra-smoothing / max-merge=3 / limit-refs=3 / limit-modes / me=3 / subme=3 / merange=57 / temporal-mvp / no-frame-dup / no-hme / weightp / no-weightb / no-analyze-src-pics / deblock=0:0 / sao / no-sao-non-deblock / rd=4 / selective-sao=4 / early-skip / rskip / no-fast-intra / no-tskip-fast / no-cu-lossless / no-b-intra / splitrd-skip / rdpenalty=0 / psy-rd=0.00 / psy-rdoq=0.00 / no-rd-refine / no-lossless / cbqpoffs=0 / crqpoffs=0 / rc=abr / bitrate=6000 / qcomp=0.60 / qpstep=4 / stats-write=0 / stats-read=2 / cplxblur=20.0 / qblur=0.5 / ipratio=1.40 / pbratio=1.30 / aq-mode=3 / aq-strength=0.40 / cutree / zone-count=0 / no-strict-cbr / qg-size=32 / no-rc-grain / qpmax=69 / qpmin=0 / no-const-vbv / sar=0 / overscan=0 / videoformat=5 / range=0 / colorprim=1 / transfer=1 / colormatrix=1 / chromaloc=0 / display-window=0 / cll=0,0 / min-luma=0 / max-luma=1023 / log2-max-poc-lsb=8 / vui-timing-info / vui-hrd-info / slices=1 / no-opt-qp-pps / no-opt-ref-list-length-pps / multi-pass-opt-rps / scenecut-bias=0.05 / hist-threshold=0.03 / no-opt-cu-delta-qp / no-aq-motion / no-hdr10 / no-hdr10-opt / no-dhdr10-opt / no-idr-recovery-sei / analysis-load / analysis-reuse-level=0 / analysis-save-reuse-level=0 / analysis-load-reuse-level=10 / scale-factor=0 / refine-intra=0 / refine-inter=0 / refine-mv=1 / refine-ctu-distortion=0 / no-limit-sao / ctu-info=0 / no-lowpass-dct / refine-analysis-type=0 / copy-pic=1 / max-ausize-factor=1.0 / no-dynamic-refine / no-single-sei / no-hevc-aq / no-svt / no-field / qp-adaptation-range=1.00 / scenecut-aware-qp / scenecut-window=500 / qp-delta-ref=5.000000 / qp-delta-nonref=6.500000conformance-window-offsets / right=0 / bottom=0 / decoder-max-rate=0 / no-vbv-live-multi-pass
  20. Default : Yes
  21. Forced : No
  22. Color range : Limited
  23. Color primaries : BT.709
  24. Transfer characteristics : BT.709
  25. Matrix coefficients : BT.709

  26. Audio
  27. ID : 2
  28. ID in the original source medium : 4352 (0x1100)
  29. Format : AC-3
  30. Format/Info : Audio Coding 3
  31. Mode extension : CM (complete main)
  32. Format settings, Endianness : Big
  33. Codec ID : A_AC3
  34. Duration : 2 h 0 min
  35. Bit rate mode : Constant
  36. Bit rate : 448 kb/s
  37. Channel(s) : 6 channels
  38. Channel positions : Front: L C R, Side: L R, LFE
  39. Sampling rate : 48.0 kHz
  40. Frame rate : 31.250 FPS (1536 spf)
  41. Bit depth : 16 bits
  42. Compression mode : Lossy
  43. Stream size : 387 MiB (7%)
  44. Title : Surround 5.1
  45. Language : English
  46. Default : Yes
  47. Forced : No

  48. Subtitle #1
  49. ID : 3
  50. Format : PGS
  51. Muxing mode : zlib
  52. Codec ID : S_HDMV/PGS
  53. Codec ID/Info : Picture based subtitle format used on BDs/HD-DVDs
  54. Duration : 1 h 51 min
  55. Bit rate : 50.5 kb/s
  56. Count of elements : 2232
  57. Stream size : 40.3 MiB (1%)
  58. Language : English
  59. Default : No
  60. Forced : No

  61. Subtitle #2
  62. ID : 4
  63. Format : VobSub
  64. Muxing mode : zlib
  65. Codec ID : S_VOBSUB
  66. Codec ID/Info : Picture based subtitle format used on DVDs
  67. Duration : 2 h 0 min
  68. Bit rate : 6 856 b/s
  69. Count of elements : 1286
  70. Stream size : 5.90 MiB (0%)
  71. Language : English
  72. Default : No
  73. Forced : No

  74. Subtitle #3
  75. ID : 5
  76. Format : VobSub
  77. Muxing mode : zlib
  78. Codec ID : S_VOBSUB
  79. Codec ID/Info : Picture based subtitle format used on DVDs
  80. Duration : 1 h 52 min
  81. Bit rate : 7 681 b/s
  82. Count of elements : 1093
  83. Stream size : 6.16 MiB (0%)
  84. Language : French
  85. Default : No
  86. Forced : No

  87. Subtitle #4
  88. ID : 6
  89. Format : VobSub
  90. Muxing mode : zlib
  91. Codec ID : S_VOBSUB
  92. Codec ID/Info : Picture based subtitle format used on DVDs
  93. Duration : 1 h 52 min
  94. Bit rate : 7 283 b/s
  95. Count of elements : 779
  96. Stream size : 5.84 MiB (0%)
  97. Language : Dutch
  98. Default : No
  99. Forced : No

  100. Subtitle #5
  101. ID : 7
  102. Format : VobSub
  103. Muxing mode : zlib
  104. Codec ID : S_VOBSUB
  105. Codec ID/Info : Picture based subtitle format used on DVDs
  106. Duration : 1 h 52 min
  107. Bit rate : 4 839 b/s
  108. Count of elements : 1147
  109. Stream size : 3.88 MiB (0%)
  110. Language : Arabic
  111. Default : No
  112. Forced : No

  113. Subtitle #6
  114. ID : 8
  115. Format : VobSub
  116. Muxing mode : zlib
  117. Codec ID : S_VOBSUB
  118. Codec ID/Info : Picture based subtitle format used on DVDs
  119. Duration : 1 h 52 min
  120. Bit rate : 8 145 b/s
  121. Count of elements : 1091
  122. Stream size : 6.53 MiB (0%)
  123. Language : Czech
  124. Default : No
  125. Forced : No

  126. Subtitle #7
  127. ID : 9
  128. Format : VobSub
  129. Muxing mode : zlib
  130. Codec ID : S_VOBSUB
  131. Codec ID/Info : Picture based subtitle format used on DVDs
  132. Duration : 2 h 0 min
  133. Bit rate : 8 203 b/s
  134. Count of elements : 996
  135. Stream size : 7.06 MiB (0%)
  136. Language : Danish
  137. Default : No
  138. Forced : No

  139. Subtitle #8
  140. ID : 10
  141. Format : VobSub
  142. Muxing mode : zlib
  143. Codec ID : S_VOBSUB
  144. Codec ID/Info : Picture based subtitle format used on DVDs
  145. Duration : 1 h 52 min
  146. Bit rate : 7 469 b/s
  147. Count of elements : 1081
  148. Stream size : 5.99 MiB (0%)
  149. Language : Finnish
  150. Default : No
  151. Forced : No

  152. Subtitle #9
  153. ID : 11
  154. Format : VobSub
  155. Muxing mode : zlib
  156. Codec ID : S_VOBSUB
  157. Codec ID/Info : Picture based subtitle format used on DVDs
  158. Duration : 1 h 52 min
  159. Bit rate : 9 566 b/s
  160. Count of elements : 1125
  161. Stream size : 7.67 MiB (0%)
  162. Language : Greek
  163. Default : No
  164. Forced : No

  165. Subtitle #10
  166. ID : 12
  167. Format : VobSub
  168. Muxing mode : zlib
  169. Codec ID : S_VOBSUB
  170. Codec ID/Info : Picture based subtitle format used on DVDs
  171. Duration : 1 h 52 min
  172. Bit rate : 7 731 b/s
  173. Count of elements : 1143
  174. Stream size : 6.20 MiB (0%)
  175. Language : Hebrew
  176. Default : No
  177. Forced : No

  178. Subtitle #11
  179. ID : 13
  180. Format : VobSub
  181. Muxing mode : zlib
  182. Codec ID : S_VOBSUB
  183. Codec ID/Info : Picture based subtitle format used on DVDs
  184. Duration : 1 h 52 min
  185. Bit rate : 8 434 b/s
  186. Count of elements : 1146
  187. Stream size : 6.76 MiB (0%)
  188. Language : Hindi
  189. Default : No
  190. Forced : No

  191. Subtitle #12
  192. ID : 14
  193. Format : VobSub
  194. Muxing mode : zlib
  195. Codec ID : S_VOBSUB
  196. Codec ID/Info : Picture based subtitle format used on DVDs
  197. Duration : 1 h 52 min
  198. Bit rate : 8 128 b/s
  199. Count of elements : 1131
  200. Stream size : 6.52 MiB (0%)
  201. Language : Hungarian
  202. Default : No
  203. Forced : No

  204. Subtitle #13
  205. ID : 15
  206. Format : VobSub
  207. Muxing mode : zlib
  208. Codec ID : S_VOBSUB
  209. Codec ID/Info : Picture based subtitle format used on DVDs
  210. Duration : 1 h 52 min
  211. Bit rate : 5 810 b/s
  212. Count of elements : 1147
  213. Stream size : 4.66 MiB (0%)
  214. Language : Korean
  215. Default : No
  216. Forced : No

  217. Subtitle #14
  218. ID : 16
  219. Format : VobSub
  220. Muxing mode : zlib
  221. Codec ID : S_VOBSUB
  222. Codec ID/Info : Picture based subtitle format used on DVDs
  223. Duration : 1 h 52 min
  224. Bit rate : 7 280 b/s
  225. Count of elements : 977
  226. Stream size : 5.84 MiB (0%)
  227. Language : Norwegian Bokmal
  228. Default : No
  229. Forced : No

  230. Subtitle #15
  231. ID : 17
  232. Format : VobSub
  233. Muxing mode : zlib
  234. Codec ID : S_VOBSUB
  235. Codec ID/Info : Picture based subtitle format used on DVDs
  236. Duration : 2 h 0 min
  237. Bit rate : 8 306 b/s
  238. Count of elements : 1142
  239. Stream size : 7.15 MiB (0%)
  240. Language : Polish
  241. Default : No
  242. Forced : No

  243. Subtitle #16
  244. ID : 18
  245. Format : VobSub
  246. Muxing mode : zlib
  247. Codec ID : S_VOBSUB
  248. Codec ID/Info : Picture based subtitle format used on DVDs
  249. Duration : 2 h 0 min
  250. Bit rate : 7 421 b/s
  251. Count of elements : 853
  252. Stream size : 6.39 MiB (0%)
  253. Language : Swedish
  254. Default : No
  255. Forced : No

  256. Subtitle #17
  257. ID : 19
  258. Format : VobSub
  259. Muxing mode : zlib
  260. Codec ID : S_VOBSUB
  261. Codec ID/Info : Picture based subtitle format used on DVDs
  262. Duration : 1 h 52 min
  263. Bit rate : 10.7 kb/s
  264. Count of elements : 1155
  265. Stream size : 8.60 MiB (0%)
  266. Language : Turkish
  267. Default : No
  268. Forced : No

  269. Subtitle #18
  270. ID : 20
  271. Format : UTF-8
  272. Codec ID : S_TEXT/UTF8
  273. Codec ID/Info : UTF-8 Plain Text
  274. Duration : 1 h 52 min
  275. Bit rate : 80 b/s
  276. Count of elements : 1119
  277. Stream size : 66.0 KiB (0%)
  278. Language : Persian
  279. Default : No
  280. Forced : No

  281. Subtitle #19
  282. ID : 21
  283. Format : UTF-8
  284. Codec ID : S_TEXT/UTF8
  285. Codec ID/Info : UTF-8 Plain Text
  286. Duration : 2 h 0 min
  287. Bit rate : 98 b/s
  288. Count of elements : 1142
  289. Stream size : 87.0 KiB (0%)
  290. Language : Thai
  291. Default : No
  292. Forced : No

  293. Subtitle #20
  294. ID : 22
  295. Format : UTF-8
  296. Codec ID : S_TEXT/UTF8
  297. Codec ID/Info : UTF-8 Plain Text
  298. Duration : 1 h 51 min
  299. Bit rate : 75 b/s
  300. Count of elements : 1122
  301. Stream size : 61.6 KiB (0%)
  302. Language : Vietnamese
  303. Default : No
  304. Forced : No

  305. Menu
  306. 00:00:00.000 : en:Chapter 01
  307. 00:06:35.395 : en:Chapter 02
  308. 00:14:34.623 : en:Chapter 03
  309. 00:21:52.811 : en:Chapter 04
  310. 00:30:37.585 : en:Chapter 05
  311. 00:38:06.117 : en:Chapter 06
  312. 00:45:03.158 : en:Chapter 07
  313. 00:53:54.189 : en:Chapter 08
  314. 01:01:08.414 : en:Chapter 09
  315. 01:09:03.639 : en:Chapter 10
  316. 01:15:59.304 : en:Chapter 11
  317. 01:23:11.695 : en:Chapter 12
  318. 01:29:59.519 : en:Chapter 13
  319. 01:36:48.928 : en:Chapter 14
  320. 01:42:37.276 : en:Chapter 15
  321. 01:48:01.099 : en:Chapter 16
复制代码

机战未来 / 智能杀机/绝密飞行4k Stealth  2005 2160p BluRay AI x265 HEVC 10bit AC3 5.1 电影下载

绝密飞行4k Stealth  2005 2160p BluRay AI x265 HEVC 10bit AC3 5.1 【5.5 GB】
绝密飞行4k.txt (90 Bytes)
回复

使用道具 举报

全部回复11

laolifeidadao 发表于 2021-2-9 20:50:07

laolifeidadao 沙发

2021-2-9 20:50:07

感谢分享
回复 支持 反对

使用道具 举报

hu58 发表于 2021-2-9 21:29:31

hu58 板凳

2021-2-9 21:29:31

还是等官方吧
回复 支持 反对

使用道具 举报

八神 发表于 2021-2-10 10:39:36

八神 地板

2021-2-10 10:39:36

这部电影非常不错哦,就是评分偏低
回复 支持 反对

使用道具 举报

laoli420106 发表于 2021-2-10 12:55:02

laoli420106 5#

2021-2-10 12:55:02

谢谢分享
回复 支持 反对

使用道具 举报

ARFEI 发表于 2021-2-10 18:04:46

ARFEI 6#

2021-2-10 18:04:46

下载看看,多谢楼主的分享。
回复 支持 反对

使用道具 举报

pygwg148 发表于 2021-2-10 18:25:29

pygwg148 7#

2021-2-10 18:25:29

DVD时代就看过了。非常先进的战机。今天再看也是一样好看
回复 支持 反对

使用道具 举报

hlj1222 发表于 2021-2-11 15:48:43

hlj1222 8#

2021-2-11 15:48:43

谢谢楼主分享如此精彩的空战电影,希望画质能给力些
回复 支持 反对

使用道具 举报

zhucehao4k 发表于 2021-2-12 11:28:24

zhucehao4k 9#

2021-2-12 11:28:24

最近出了很多这种 AI x265 的片子
回复 支持 反对

使用道具 举报

peast2000 发表于 2021-2-12 14:16:42

peast2000 10#

2021-2-12 14:16:42

经典之作,谢谢楼主分享!
回复 支持 反对

使用道具 举报

mryang6688 发表于 2021-2-14 18:09:26

mryang6688 11#

2021-2-14 18:09:26

感谢楼主,谢谢分享
回复 支持 反对

使用道具 举报

frankjoule 发表于 2021-2-16 17:02:58

frankjoule 12#

2021-2-16 17:02:58

感谢楼主分享!这是一部值得收藏的片子。
回复 支持 反对

使用道具 举报

   发表回复

您需要登录后才可以回帖 登录 | 立即注册

返回列表 本版积分规则

  • 在线客服

  • 返回顶部