微博 微信

Hao4K影音

电影频道
电影封面:
片  名: 异种4k
电影分类: 动作 科幻 恐怖 
国  家: 美国 
年  代: 90年代
分 辨 率: 4K(3840x2160)
电影格式: MKV|REMUX 
画质标准: 其他 
音质编码: 其他AAC 
电影声道: 5.1声道 
帧数/FPS: 23.976 FPS
电影语言: 英文原版 
资源大小: 4.9 GB
导  演: 罗杰·唐纳森
豆瓣评分: 5.4 分
中文字幕: -
剧情简介: 自20世纪70年代开始,美国政府实施了名为SETI的计划,30年来不间断的用射电望远镜扫描宇宙空间,旨在寻找外星生物和相关文明。在犹他州的德威市,有一所隶属政府的实验室,这里正在进行一项秘密试验。在此之前,人类曾受到外星文明发回的信息,其中包括外星生物的DNA组成和生命重组的方法。犹他州实验室的科学家们利用外星人提供的资料培养出拥有外星人DNA的新人类“塞尔”。出于某种原因,政府决定中止这项实验,但其中一个塞尔却逃出实验室。她将给人类带来怎样的影响?
  本片荣获1996年MTV电影奖最佳银幕之吻奖、1995年科环宇宙杂志最佳化妆奖、1995年Sitges-Catalonian国际电影节最佳特效奖。
异种4k Species 1995 2160p BluRay AI x265 HEVC 10bit AC3 5.1电影信息
  1. Video
  2. ID : 1
  3. Format : HEVC
  4. Format/Info : High Efficiency Video Coding
  5. Codec ID : V_MPEGH/ISO/HEVC
  6. Duration : 1 h 48 min
  7. Bit rate : 6 001 kb/s
  8. Width : 3 840 pixels
  9. Height : 1 632 pixels
  10. Display aspect ratio : 2.35:1
  11. Frame rate mode : Constant
  12. Frame rate : 23.976 (24000/1001) FPS
  13. Color space : YUV
  14. Chroma subsampling : 4:2:0
  15. Bit depth : 10 bits
  16. Bits/(Pixel*Frame) : 0.040
  17. Stream size : 4.54 GiB (93%)
  18. Writing library : x265 3.2+9-971180b100f8:[Windows][MSVC 1923][64 bit] 10bit
  19. Encoding settings : cpuid=1111039 / frame-threads=4 / numa-pools=24 / wpp / no-pmode / no-pme / no-psnr / ssim / log-level=2 / input-csp=1 / input-res=3840x1632 / interlace=0 / total-frames=155820 / level-idc=0 / high-tier=1 / uhd-bd=0 / ref=4 / no-allow-non-conformance / no-repeat-headers / annexb / no-aud / no-hrd / info / hash=0 / no-temporal-layers / open-gop / min-keyint=23 / keyint=250 / gop-lookahead=0 / bframes=8 / b-adapt=2 / b-pyramid / bframe-bias=40 / rc-lookahead=80 / lookahead-slices=4 / scenecut=40 / radl=0 / no-splice / no-intra-refresh / ctu=64 / min-cu-size=8 / no-rect / no-amp / max-tu-size=32 / tu-inter-depth=1 / tu-intra-depth=1 / limit-tu=0 / rdoq-level=2 / dynamic-rd=0.00 / ssim-rd / signhide / no-tskip / nr-intra=0 / nr-inter=0 / constrained-intra / strong-intra-smoothing / max-merge=3 / limit-refs=3 / limit-modes / me=3 / subme=3 / merange=57 / temporal-mvp / no-frame-dup / no-hme / weightp / no-weightb / no-analyze-src-pics / deblock=0:0 / sao / no-sao-non-deblock / rd=4 / selective-sao=4 / early-skip / rskip / no-fast-intra / no-tskip-fast / no-cu-lossless / no-b-intra / splitrd-skip / rdpenalty=0 / psy-rd=2.45 / psy-rdoq=1.50 / no-rd-refine / no-lossless / cbqpoffs=0 / crqpoffs=0 / rc=abr / bitrate=6000 / qcomp=0.60 / qpstep=4 / stats-write=0 / stats-read=2 / cplxblur=20.0 / qblur=0.5 / ipratio=1.40 / pbratio=1.30 / aq-mode=3 / aq-strength=0.40 / cutree / zone-count=0 / no-strict-cbr / qg-size=32 / no-rc-grain / qpmax=69 / qpmin=0 / no-const-vbv / sar=0 / overscan=0 / videoformat=5 / range=0 / colorprim=1 / transfer=1 / colormatrix=1 / chromaloc=0 / display-window=0 / cll=0,0 / min-luma=0 / max-luma=1023 / log2-max-poc-lsb=8 / vui-timing-info / vui-hrd-info / slices=1 / no-opt-qp-pps / no-opt-ref-list-length-pps / multi-pass-opt-rps / scenecut-bias=0.05 / no-opt-cu-delta-qp / no-aq-motion / no-hdr / no-hdr-opt / no-dhdr10-opt / no-idr-recovery-sei / analysis-load / analysis-reuse-level=10 / scale-factor=0 / refine-intra=0 / refine-inter=0 / refine-mv=1 / refine-ctu-distortion=0 / limit-sao / ctu-info=0 / no-lowpass-dct / refine-analysis-type=0 / copy-pic=1 / max-ausize-factor=1.0 / no-dynamic-refine / no-single-sei / no-hevc-aq / no-svt / no-field / qp-adaptation-range=1.00
  20. Default : Yes
  21. Forced : No
  22. Color range : Limited
  23. Color primaries : BT.709
  24. Transfer characteristics : BT.709
  25. Matrix coefficients : BT.709

  26. Audio
  27. ID : 2
  28. Format : AC-3
  29. Format/Info : Audio Coding 3
  30. Mode extension : CM (complete main)
  31. Format settings, Endianness : Big
  32. Codec ID : A_AC3
  33. Duration : 1 h 48 min
  34. Bit rate mode : Constant
  35. Bit rate : 448 kb/s
  36. Channel(s) : 6 channels
  37. Channel positions : Front: L C R, Side: L R, LFE
  38. Sampling rate : 48.0 kHz
  39. Frame rate : 31.250 FPS (1536 spf)
  40. Bit depth : 16 bits
  41. Compression mode : Lossy
  42. Stream size : 347 MiB (7%)
  43. Language : English
  44. Default : No
  45. Forced : No

  46. Subtitle #1
  47. ID : 3
  48. Format : UTF-8
  49. Codec ID : S_TEXT/UTF8
  50. Codec ID/Info : UTF-8 Plain Text
  51. Duration : 1 h 37 min
  52. Bit rate : 38 b/s
  53. Count of elements : 926
  54. Stream size : 27.8 KiB (0%)
  55. Language : English
  56. Default : No
  57. Forced : No

  58. Subtitle #2
  59. ID : 4
  60. Format : UTF-8
  61. Codec ID : S_TEXT/UTF8
  62. Codec ID/Info : UTF-8 Plain Text
  63. Duration : 1 h 37 min
  64. Bit rate : 38 b/s
  65. Count of elements : 898
  66. Stream size : 27.2 KiB (0%)
  67. Language : English
  68. Default : No
  69. Forced : No

  70. Subtitle #3
  71. ID : 5
  72. Format : UTF-8
  73. Codec ID : S_TEXT/UTF8
  74. Codec ID/Info : UTF-8 Plain Text
  75. Duration : 1 h 38 min
  76. Bit rate : 46 b/s
  77. Count of elements : 815
  78. Stream size : 33.6 KiB (0%)
  79. Language : Amharic
  80. Default : No
  81. Forced : No

  82. Subtitle #4
  83. ID : 6
  84. Format : UTF-8
  85. Codec ID : S_TEXT/UTF8
  86. Codec ID/Info : UTF-8 Plain Text
  87. Duration : 1 h 43 min
  88. Bit rate : 29 b/s
  89. Count of elements : 808
  90. Stream size : 22.3 KiB (0%)
  91. Language : Danish
  92. Default : No
  93. Forced : No

  94. Subtitle #5
  95. ID : 7
  96. Format : UTF-8
  97. Codec ID : S_TEXT/UTF8
  98. Codec ID/Info : UTF-8 Plain Text
  99. Duration : 1 h 46 min
  100. Bit rate : 32 b/s
  101. Count of elements : 694
  102. Stream size : 25.5 KiB (0%)
  103. Language : Dutch
  104. Default : No
  105. Forced : No

  106. Subtitle #6
  107. ID : 8
  108. Format : UTF-8
  109. Codec ID : S_TEXT/UTF8
  110. Codec ID/Info : UTF-8 Plain Text
  111. Duration : 1 h 39 min
  112. Bit rate : 56 b/s
  113. Count of elements : 892
  114. Stream size : 41.4 KiB (0%)
  115. Language : Persian
  116. Default : No
  117. Forced : No

  118. Subtitle #7
  119. ID : 9
  120. Format : UTF-8
  121. Codec ID : S_TEXT/UTF8
  122. Codec ID/Info : UTF-8 Plain Text
  123. Duration : 1 h 39 min
  124. Bit rate : 32 b/s
  125. Count of elements : 684
  126. Stream size : 23.4 KiB (0%)
  127. Language : Finnish
  128. Default : No
  129. Forced : No

  130. Subtitle #8
  131. ID : 10
  132. Format : UTF-8
  133. Codec ID : S_TEXT/UTF8
  134. Codec ID/Info : UTF-8 Plain Text
  135. Duration : 1 h 39 min
  136. Bit rate : 42 b/s
  137. Count of elements : 908
  138. Stream size : 31.0 KiB (0%)
  139. Language : German
  140. Default : No
  141. Forced : No

  142. Subtitle #9
  143. ID : 11
  144. Format : UTF-8
  145. Codec ID : S_TEXT/UTF8
  146. Codec ID/Info : UTF-8 Plain Text
  147. Duration : 1 h 39 min
  148. Bit rate : 36 b/s
  149. Count of elements : 698
  150. Stream size : 26.5 KiB (0%)
  151. Language : Norwegian
  152. Default : No
  153. Forced : No

  154. Subtitle #10
  155. ID : 12
  156. Format : UTF-8
  157. Codec ID : S_TEXT/UTF8
  158. Codec ID/Info : UTF-8 Plain Text
  159. Duration : 1 h 39 min
  160. Bit rate : 38 b/s
  161. Count of elements : 686
  162. Stream size : 28.0 KiB (0%)
  163. Language : Swedish
  164. Default : No
  165. Forced : No

  166. Subtitle #11
  167. ID : 13
  168. Format : UTF-8
  169. Codec ID : S_TEXT/UTF8
  170. Codec ID/Info : UTF-8 Plain Text
  171. Duration : 1 h 38 min
  172. Bit rate : 48 b/s
  173. Count of elements : 887
  174. Stream size : 34.7 KiB (0%)
  175. Language : Vietnamese
  176. Default : No
  177. Forced : No
复制代码

异种4k Species 1995 2160p BluRay AI x265 HEVC 10bit AC3 5.1电影下载

异种4k Species 1995 2160p BluRay AI x265 HEVC 10bit AC3 5.1【4.9 GB】
异种4k.txt (86 Bytes)
回复

使用道具 举报

全部回复14

lywzj238 发表于 2021-2-10 07:52:18

lywzj238 沙发

2021-2-10 07:52:18

谢谢分享好电影
回复 支持 反对

使用道具 举报

lidaiyi721 发表于 2021-2-10 08:04:03

lidaiyi721 板凳

2021-2-10 08:04:03

谢谢分享
回复 支持 反对

使用道具 举报

power8 发表于 2021-2-10 08:47:09

power8 地板

2021-2-10 08:47:09

非常好的资源
大力支持
回复 支持 反对

使用道具 举报

RG1951 发表于 2021-2-10 08:51:13

RG1951 5#

2021-2-10 08:51:13

谢谢分享好电影
回复 支持 反对

使用道具 举报

奥古斯都 发表于 2021-2-10 10:35:09

奥古斯都 6#

2021-2-10 10:35:09

谢谢分享
回复 支持 反对

使用道具 举报

ywf6168 发表于 2021-2-11 11:29:47

ywf6168 7#

2021-2-11 11:29:47

感谢分享,辛苦了
回复 支持 反对

使用道具 举报

bbgrnnji 发表于 2021-2-11 12:59:25

bbgrnnji 8#

2021-2-11 12:59:25

这个必须赞一个
回复 支持 反对

使用道具 举报

dilekzj 发表于 2021-2-11 16:19:05

dilekzj 9#

2021-2-11 16:19:05

谢谢分享   春节快乐!
回复 支持 反对

使用道具 举报

boboet59 发表于 2021-2-11 16:35:27

boboet59 10#

2021-2-11 16:35:27

非常宝贵的资源,辛苦了
回复 支持 反对

使用道具 举报

yilianfeihong 发表于 2021-2-11 17:12:15

yilianfeihong 11#

2021-2-11 17:12:15

4.9g也能称4k?搞笑?
回复 支持 反对

使用道具 举报

maywei 发表于 2021-2-11 21:44:36

maywei 12#

2021-2-11 21:44:36

90年代的科幻片 应该比现在的好看
回复 支持 反对

使用道具 举报

hgcecilia 发表于 2021-2-12 10:47:49

hgcecilia 13#

2021-2-12 10:47:49

多谢楼主
回复 支持 反对

使用道具 举报

lywzj238 发表于 2021-2-14 01:28:56

lywzj238 14#

2021-2-14 01:28:56

谢谢分享好电影
回复 支持 反对

使用道具 举报

AFriends 发表于 2021-2-16 02:31:26

AFriends 15#

2021-2-16 02:31:26

够刺激的。谢谢你了。
回复 支持 反对

使用道具 举报

   发表回复

您需要登录后才可以回帖 登录 | 立即注册

返回列表 本版积分规则

  • 在线客服

  • 返回顶部