微博 微信

Hao4K影音

[4K MV视频] [4K MV] 2021 Fei - 你好 (feat Jackson Wang alang) [2160P /MP4/499MB]

2021-2-13 07:55:12 5208 1 |只看大图 回帖奖励 |倒序浏览 |阅读模式

0827 楼主

2021-2-12 13:48:13

Fei - 你好 (feat. Jackson Wang alang) [UHD 2160p].mp4_20210212_132000.405.jpg Fei - 你好 (feat. Jackson Wang alang) [UHD 2160p].mp4_20210212_132029.046.jpg Fei - 你好 (feat. Jackson Wang alang) [UHD 2160p].mp4_20210212_132044.997.jpg Fei - 你好 (feat. Jackson Wang alang) [UHD 2160p].mp4_20210212_132110.437.jpg Fei - 你好 (feat. Jackson Wang alang) [UHD 2160p].mp4_20210212_132118.077.jpg

General
Complete name                  :2021 Fei - 你好 (feat. Jackson Wang alang) [UHD 2160p].mp4
Format                         : MPEG-4
Format profile                 : Base Media
Codec ID                       : isom (isom/iso2/avc1/mp41)
File size                      : 499 MiB
Duration                       : 3 min 23 s
Overall bit rate mode          : Variable
Overall bit rate               : 20.6 Mb/s
Encoded date                   : UTC 2021-01-09 12:56:05
Tagged date                    : UTC 2021-01-09 12:56:05
Writing application            : Lavf58.12.100

Video
ID                             : 1
Format                         : AVC
Format/Info                    : Advanced Video Codec
Format profile                 : Main@L5.1
Format settings                : CABAC / 1 Ref Frames
Format settings, CABAC         : Yes
Format settings, Reference fra : 1 frame
Format settings, GOP           : M=1, N=25
Codec ID                       : avc1
Codec ID/Info                  : Advanced Video Coding
Duration                       : 3 min 23 s
Bit rate mode                  : Constant
Bit rate                       : 20.4 Mb/s
Width                          : 3 840 pixels
Height                         : 2 160 pixels
Display aspect ratio           : 16:9
Frame rate mode                : Constant
Frame rate                     : 23.976 (23976/1000) FPS
Original frame rate            : 23.976 (24000/1001) FPS
Color space                    : YUV
Chroma subsampling             : 4:2:0
Bit depth                      : 8 bits
Scan type                      : Progressive
Bits/(Pixel*Frame)             : 0.103
Stream size                    : 495 MiB (99%)
Encoded date                   : UTC 2021-01-09 12:56:05
Tagged date                    : UTC 2021-01-09 12:56:05
Codec configuration box        : avcC

Audio
ID                             : 2
Format                         : AAC LC
Format/Info                    : Advanced Audio Codec Low Complexity
Codec ID                       : mp4a-40-2
Duration                       : 3 min 23 s
Bit rate mode                  : Variable
Bit rate                       : 187 kb/s
Maximum bit rate               : 192 kb/s
Channel(s)                     : 2 channels
Channel layout                 : L R
Sampling rate                  : 48.0 kHz
Frame rate                     : 46.875 FPS (1024 SPF)
Compression mode               : Lossy
Stream size                    : 4.53 MiB (1%)
Default                        : Yes
Alternate group                : 1
Encoded date                   : UTC 2021-01-09 12:56:05
Tagged date                    : UTC 2021-01-09 12:56:05


ezgif.com-video-to-gif.gif


新做的种子,拜托下载的朋友自觉做种,人人为我,我为人人,另有需要,请内信告知!谢谢!
2021 Fei - 你好 (feat Jackson Wang alang) [UHD 2160p].mp4.torrent (39.76 KB)
回复

使用道具 举报

全部回复1

xgfp 发表于 2021-2-13 07:55:12

xgfp 沙发

2021-2-13 07:55:12

祝大家牛年大吉!新春快乐!阖家平安!恭喜发财!
谢谢楼主分享,目前该视频种子和用户都很少,希望多一些人下载
回复 支持 反对

使用道具 举报

   发表回复

您需要登录后才可以回帖 登录 | 立即注册

返回列表 本版积分规则

:
青铜玩家
:
未填写

主题

帖子

积分164

图文推荐

  • “007”系列电影《007:无暇赴死》宣布全片

    “007”系列电影《007:无暇赴死》宣布全片杀青,

  • 【新手教程】抛弃移动硬盘、直连电脑FTP服

    简单说下个人情况:电视55X9500G,没有NAS,

  • 刚买了个好东西:16T的单碟移动硬盘。

    刚买了个好东西:16T的单碟移动硬盘。中亚上买的

  • 最新版Kodi( XBMC)18.0 4K电视、4K盒子TV

    KODI(XBMC)TV版简介 KODI是XBMC的升级版,早期

  • 教你怎么把Kodi(XBMC)设置成中文

    1、启动 Kodi,进入 System -> Settings -> Appea

  • 在线客服

  • 返回顶部