微博 微信

Hao4K影音

电影频道
电影封面:
片  名: 尤巴县突发新闻4k
电影分类: 犯罪 惊悚 剧情 喜剧 
国  家: 美国 英国 
年  代: 2021年
分 辨 率: 4K(3840x2160)
电影格式: MKV|REMUX 
画质标准: HDR 
音质编码: Dolby Digital Plus Audio 
电影声道: 5.1声道 
帧数/FPS: 23.976 FPS
电影语言: 英文原版 
资源大小: 10.31 GB
导  演: 泰特·泰勒
豆瓣评分: 6.6 分
中文字幕: /thread-54143-1-1.html
剧情简介: 苏·宝特姆斯(珍妮饰)将丈夫与一个女子捉奸在床,却没成想,她的丈夫被吓到心脏病发离世。苏随即把丈夫尸身埋掉。老公的消失,倒是让苏的名望、地位日益增长。但是苏很快发现,她自己不仅要躲避警察和罪犯,更要对她那迫切想要获得猛料的新闻主播妹妹南希三缄其口。
尤巴猛料/尤巴县突发新闻4k Breaking.News.in.Yuba.County.2021.2160p.WEB.H265.电影信息
  1. Video
  2. ID : 1
  3. Format : HEVC
  4. Format/Info : High Efficiency Video Coding
  5. Format profile : Main@L5.1@Main
  6. Codec ID : V_MPEGH/ISO/HEVC
  7. Duration : 1 h 36 min
  8. Bit rate : 14.6 Mb/s
  9. Width : 3 840 pixels
  10. Height : 2 160 pixels
  11. Display aspect ratio : 16:9
  12. Frame rate mode : Constant
  13. Frame rate : 23.976 (24000/1001) FPS
  14. Color space : YUV
  15. Chroma subsampling : 4:2:0
  16. Bit depth : 8 bits
  17. Bits/(Pixel*Frame) : 0.073
  18. Stream size : 9.82 GiB (96%)
  19. Default : Yes
  20. Forced : No
  21. Color range : Limited
  22. Color primaries : BT.709
  23. Transfer characteristics : BT.709
  24. Matrix coefficients : BT.709

  25. Audio
  26. ID : 2
  27. Format : E-AC-3
  28. Format/Info : Enhanced AC-3
  29. Commercial name : Dolby Digital Plus
  30. Codec ID : A_EAC3
  31. Duration : 1 h 36 min
  32. Bit rate mode : Constant
  33. Bit rate : 256 kb/s
  34. Channel(s) : 6 channels
  35. Channel layout : L R C LFE Ls Rs
  36. Sampling rate : 48.0 kHz
  37. Frame rate : 31.250 FPS (1536 SPF)
  38. Compression mode : Lossy
  39. Stream size : 177 MiB (2%)
  40. Language : English
  41. Service kind : Complete Main
  42. Default : Yes
  43. Forced : No

  44. Text
  45. ID : 3
  46. Format : UTF-8
  47. Codec ID : S_TEXT/UTF8
  48. Codec ID/Info : UTF-8 Plain Text
  49. Language : English
  50. Default : No
  51. Forced : No
复制代码

尤巴猛料/尤巴县突发新闻4k Breaking.News.in.Yuba.County.2021.2160p.WEB.H265.电影下载

尤巴县突发新闻4k Breaking.News.in.Yuba.County.2021.2160p.WEB.H265.【10.31 GB】
[Hao4k]尤巴县突发新闻4k Breaking.News.in.Yuba.County.2021.2160p.WEB.H265-NAISU.torrent (52.28 KB)
回复

使用道具 举报

全部回复7

dyczw 发表于 2021-2-13 08:18:33

dyczw 沙发

2021-2-13 08:18:33

感谢分享,辛苦了。
回复 支持 反对

使用道具 举报

yale 发表于 2021-2-13 19:11:12

yale 板凳

2021-2-13 19:11:12

谢谢分享
回复 支持 反对

使用道具 举报

panbell 发表于 2021-2-13 20:09:05

panbell 地板

2021-2-13 20:09:05

感谢分享好电影
回复 支持 反对

使用道具 举报

xxw8888 发表于 2021-2-13 22:29:13

xxw8888 5#

2021-2-13 22:29:13

微小完美事物的地图4k The.Map.of.Tiny.Perfect.Things.2021.HDR.2160p.WEB.H265


















感谢分享好电影


回复 支持 反对

使用道具 举报

xxw8888 发表于 2021-2-13 22:29:56

xxw8888 6#

2021-2-13 22:29:56

感谢分享好电影
回复 支持 反对

使用道具 举报

panbell 发表于 2021-2-14 15:04:20

panbell 7#

2021-2-14 15:04:20

谢谢分享,好片
回复 支持 反对

使用道具 举报

huiquanadam 发表于 2021-2-17 23:17:02

huiquanadam 8#

2021-2-17 23:17:02

Breaking.News.in.Yuba.County
回复 支持 反对

使用道具 举报

   发表回复

您需要登录后才可以回帖 登录 | 立即注册

返回列表 本版积分规则

  • 在线客服

  • 返回顶部