微博 微信

Hao4K影音

电影频道
电影封面:
片  名: 巴布与斯塔尔的维斯塔德尔玛之旅4k
电影分类: 喜剧 
国  家: 美国 
年  代: 2021年
分 辨 率: 4K(3840x2160)
电影格式: MKV|REMUX 
画质标准: HDR 
音质编码: Dolby Digital Plus Audio 
电影声道: 5.1声道 其他 
帧数/FPS: 23.976 FPS
电影语言: 英文原版 
资源大小: 11.57 GB
导  演: 乔什·戈林鲍姆
豆瓣评分:
中文字幕: -
剧情简介:  故事讲述两名好友第一次离开中西部的小镇去弗罗里达度假。在度假时,她们被卷入了一场坏人要杀死镇上每一个人的恐怖阴谋中。
巴布与斯塔尔的维斯塔德尔玛之旅4k Barb.and.Star.Go.to.Vista.Del.Mar.2021.HDR.2160p.WEB.H265.电影信息
  1. Video
  2. ID : 1
  3. Format : HEVC
  4. Format/Info : High Efficiency Video Coding
  5. Format profile : Main 10@L5@Main
  6. HDR format : SMPTE ST 2086, HDR10 compatible
  7. Codec ID : V_MPEGH/ISO/HEVC
  8. Duration : 1 h 46 min
  9. Bit rate : 14.8 Mb/s
  10. Width : 3 840 pixels
  11. Height : 2 160 pixels
  12. Display aspect ratio : 16:9
  13. Frame rate mode : Constant
  14. Frame rate : 23.976 (24000/1001) FPS
  15. Color space : YUV
  16. Chroma subsampling : 4:2:0 (Type 2)
  17. Bit depth : 10 bits
  18. Bits/(Pixel*Frame) : 0.074
  19. Stream size : 11.0 GiB (96%)
  20. Default : Yes
  21. Forced : No
  22. Color range : Limited
  23. Color primaries : BT.2020
  24. Transfer characteristics : PQ
  25. Matrix coefficients : BT.2020 non-constant
  26. Mastering display color primaries : BT.2020
  27. Mastering display luminance : min: 0.0001 cd/m2, max: 1000 cd/m2
  28. Maximum Content Light Level : 1000 cd/m2
  29. Maximum Frame-Average Light Level : 938 cd/m2

  30. Audio
  31. ID : 2
  32. Format : E-AC-3
  33. Format/Info : Enhanced AC-3
  34. Commercial name : Dolby Digital Plus
  35. Codec ID : A_EAC3
  36. Duration : 1 h 46 min
  37. Bit rate mode : Constant
  38. Bit rate : 256 kb/s
  39. Channel(s) : 6 channels
  40. Channel layout : L R C LFE Ls Rs
  41. Sampling rate : 48.0 kHz
  42. Frame rate : 31.250 FPS (1536 SPF)
  43. Compression mode : Lossy
  44. Stream size : 196 MiB (2%)
  45. Language : English
  46. Service kind : Complete Main
  47. Default : Yes
  48. Forced : No

  49. Text
  50. ID : 3
  51. Format : UTF-8
  52. Codec ID : S_TEXT/UTF8
  53. Codec ID/Info : UTF-8 Plain Text
  54. Language : English
  55. Default : No
  56. Forced : No
复制代码

巴布与斯塔尔的维斯塔德尔玛之旅4k Barb.and.Star.Go.to.Vista.Del.Mar.2021.HDR.2160p.WEB.H265.电影下载

巴布与斯塔尔的维斯塔德尔玛之旅4k Barb.and.Star.Go.to.Vista.Del.Mar.2021.HDR.2160p.WEB.H265.【11.57 GB】
[Hao4k]巴布与斯塔尔的维斯塔德尔玛之旅4k Barb.and.Star.Go.to.Vista.Del.Mar.2021.H.torrent (58.6 KB)
回复

使用道具 举报

全部回复16

dyczw 发表于 2021-2-13 08:18:08

dyczw 沙发

2021-2-13 08:18:08

感谢分享,辛苦了!
回复 支持 反对

使用道具 举报

xiaosimissu 发表于 2021-2-13 15:26:43

xiaosimissu 板凳

2021-2-13 15:26:43

感谢分享,辛苦了!
回复 支持 反对

使用道具 举报

忙碌的蚂蚁 发表于 2021-2-13 16:46:30

忙碌的蚂蚁 地板

2021-2-13 16:46:30

谢谢分享,楼主辛苦
回复 支持 反对

使用道具 举报

yale 发表于 2021-2-13 19:10:49

yale 5#

2021-2-13 19:10:49

谢谢分享
回复 支持 反对

使用道具 举报

ywf6168 发表于 2021-2-13 22:20:09

ywf6168 6#

2021-2-13 22:20:09

谢谢分享,楼主辛苦
回复 支持 反对

使用道具 举报

YGMIKE 发表于 2021-2-14 08:13:25

YGMIKE 7#

2021-2-14 08:13:25

感谢分享,楼主辛苦了
回复 支持 反对

使用道具 举报

zengzzs 发表于 2021-2-14 10:30:21

zengzzs 8#

2021-2-14 10:30:21

感谢分享,辛苦了
回复 支持 反对

使用道具 举报

stmarvin 发表于 2021-2-14 16:53:11

stmarvin 9#

2021-2-14 16:53:11


感谢分享,楼主辛苦了
回复 支持 反对

使用道具 举报

bonna 发表于 2021-2-15 11:36:45

bonna 10#

2021-2-15 11:36:45

导演:        乔什·戈林鲍姆
回复 支持 反对

使用道具 举报

man100 发表于 2021-2-15 15:38:55

man100 11#

2021-2-15 15:38:55

感谢分享,辛苦了
回复 支持 反对

使用道具 举报

cloudpig 发表于 2021-2-16 00:08:41

cloudpig 12#

2021-2-16 00:08:41

好资源,谢谢分享!
回复 支持 反对

使用道具 举报

shayuting 发表于 2021-2-16 09:56:56

shayuting 13#

2021-2-16 09:56:56

thanks for share
回复 支持 反对

使用道具 举报

Makoto8023 发表于 2021-2-16 10:42:09

Makoto8023 14#

2021-2-16 10:42:09

谢谢分享
回复 支持 反对

使用道具 举报

renrenssp 发表于 2021-2-16 20:50:20 Hao4K手机版

renrenssp 15#

2021-2-16 20:50:20

.喜欢即可,不用奢华
回复 支持 反对

使用道具 举报

kenter888 发表于 2021-2-18 23:34:42

kenter888 16#

2021-2-18 23:34:42

好东西大家一起分享
回复 支持 反对

使用道具 举报

wjb12345678 发表于 2021-2-19 12:46:17

wjb12345678 17#

2021-2-19 12:46:17

字幕在哪里
回复 支持 反对

使用道具 举报

   发表回复

您需要登录后才可以回帖 登录 | 立即注册

返回列表 本版积分规则

  • 在线客服

  • 返回顶部