微博 微信

Hao4K影音

电影频道
电影封面:
片  名: 耶稣是我同伙4k
电影分类: 剧情 历史 传记 
国  家: 美国 
年  代: 2021年
分 辨 率: 4K(3840x2160)
电影格式: MKV|REMUX 
画质标准: HDR 
音质编码: Dolby Digital Plus Audio 
电影声道: 其他 
帧数/FPS: 23.976 FPS
电影语言: 英文原版 
资源大小: 16.43 GB
导  演: 沙卡·金
豆瓣评分: 7.0 分
中文字幕: -
剧情简介: 《逃出绝命镇》中的两位男演员,丹尼尔·卡卢亚与勒凯斯·斯坦菲尔德,正在商谈加入历史剧情片《耶稣是我同伙》(Jesus Was My Homeboy),主人公是黑人政治组织“黑豹党”的领袖Fred Hampton。
  巧的是,本片的制片人还包括了电影《黑豹》的导演瑞恩·库格勒。华纳的这部新片,将由Shaka King导演,他与Will Berson共同编剧。影片聚焦于Hampton之死,他于1969年被杀,死于芝加哥警察局和FBI组织的一次突袭行动。警方开了80枪,而“黑豹党”成员一共只开了一枪,这一枪还是来自于一位成员被警方打死后的肌肉收缩。
  Hampton与怀孕的未婚妻正在睡觉时,头部被近距离射杀2枪,他当晚被下了药,根本没听见任何警方的动静,死后尸体被拖进小巷中,年仅21岁。经过审讯,他的死被判定为“正当杀人”,后来在1982年,以185万美元的赔偿数额,达到了民事诉讼的庭外和解。
  丹尼尔·卡卢亚饰演Hampton本人,而勒凯斯·斯坦菲尔德饰演的是FBI的线人William O’Neal,也正是他给Hampton下了药。1980年,O’Neal自杀。
犹大与黑弥赛亚 / 耶稣曾是我兄弟 / 耶稣是我同伴 / Jesus Is My Homeboy/耶稣是我同伙4k Judas.and.the.Black.Messiah.2021.HDR.2160p.WEB.H265.电影信息
  1. Video
  2. ID : 1
  3. Format : HEVC
  4. Format/Info : High Efficiency Video Coding
  5. Format profile : Main 10@L5@Main
  6. Codec ID : V_MPEGH/ISO/HEVC
  7. Duration : 2 h 5 min
  8. Bit rate : 17.4 Mb/s
  9. Width : 3 840 pixels
  10. Height : 2 160 pixels
  11. Display aspect ratio : 16:9
  12. Frame rate mode : Constant
  13. Frame rate : 23.976 (24000/1001) FPS
  14. Color space : YUV
  15. Chroma subsampling : 4:2:0
  16. Bit depth : 10 bits
  17. Bits/(Pixel*Frame) : 0.088
  18. Stream size : 15.3 GiB (94%)
  19. Writing library : x265 3.4hy:[Linux][GCC 7.5.0][64 bit] 10bit
  20. Encoding settings : cpuid=1111039 / frame-threads=1 / wpp / no-pmode / no-pme / no-psnr / no-ssim / log-level=2 / input-csp=1 / input-res=3840x2160 / interlace=0 / total-frames=0 / level-idc=0 / high-tier=1 / uhd-bd=0 / ref=4 / no-allow-non-conformance / repeat-headers / annexb / no-aud / no-hrd / info / hash=0 / no-temporal-layers / no-open-gop / min-keyint=96 / keyint=96 / gop-lookahead=0 / bframes=3 / b-adapt=2 / b-pyramid / bframe-bias=0 / rc-lookahead=25 / lookahead-slices=4 / scenecut=40 / hist-scenecut=0 / radl=0 / no-splice / no-intra-refresh / ctu=64 / min-cu-size=8 / rect / no-amp / max-tu-size=32 / tu-inter-depth=1 / tu-intra-depth=1 / limit-tu=0 / rdoq-level=2 / dynamic-rd=0.00 / no-ssim-rd / signhide / no-tskip / nr-intra=0 / nr-inter=0 / no-constrained-intra / strong-intra-smoothing / max-merge=3 / limit-refs=3 / limit-modes / me=3 / subme=3 / merange=57 / temporal-mvp / no-frame-dup / no-hme / weightp / no-weightb / no-analyze-src-pics / deblock=0:0 / sao / no-sao-non-deblock / rd=4 / selective-sao=4 / no-early-skip / rskip / no-fast-intra / no-tskip-fast / no-cu-lossless / no-b-intra / no-splitrd-skip / rdpenalty=0 / psy-rd=2.00 / psy-rdoq=1.00 / no-rd-refine / no-lossless / cbqpoffs=0 / crqpoffs=0 / rc=abr / bitrate=18000 / qcomp=0.60 / qpstep=4 / stats-write=0 / stats-read=2 / cplxblur=20.0 / qblur=0.5 / vbv-maxrate=24500 / vbv-bufsize=24500 / vbv-init=0.6 / vbv-end=0.6 / vbv-end-fr-adj=0.0 / ipratio=1.40 / pbratio=1.30 / aq-mode=2 / aq-strength=1.00 / cutree / zone-count=0 / no-strict-cbr / qg-size=32 / no-rc-grain / qpmax=69 / qpmin=0 / no-const-vbv / sar=0 / overscan=0 / videoformat=5 / range=0 / colorprim=9 / transfer=16 / colormatrix=9 / chromaloc=0 / display-window=0 / master-display=R(34000,16000)G(13250,34500)B(7500,3000)WP(15635,16450)L(40000000,50) / cll=204,55 / min-luma=0 / max-luma=1023 / log2-max-poc-lsb=8 / vui-timing-info / vui-hrd-info / no-concatenation / slices=1 / no-opt-qp-pps / no-opt-ref-list-length-pps / no-multi-pass-opt-rps / scenecut-bias=0.05 / hist-threshold=0.01 / no-opt-cu-delta-qp / no-aq-motion / hdr10 / no-hdr10-opt / no-dhdr10-opt / no-idr-recovery-sei / analysis-reuse-level=0 / analysis-save-reuse-level=0 / analysis-load-reuse-level=0 / scale-factor=0 / refine-intra=0 / refine-inter=0 / refine-mv=1 / refine-ctu-distortion=0 / no-limit-sao / ctu-info=0 / no-lowpass-dct / refine-analysis-type=0 / copy-pic=1 / max-ausize-factor=1.0 / no-dynamic-refine / no-single-sei / no-hevc-aq / no-svt / no-field / qp-adaptation-range=1.00 / no-scenecut-aware-qpconformance-window-offsets / right=0 / bottom=0 / decoder-max-rate=0
  21. Default : Yes
  22. Forced : No
  23. Color range : Limited
  24. Color primaries : BT.2020
  25. Transfer characteristics : PQ
  26. Matrix coefficients : BT.2020 non-constant
  27. Maximum Content Light Level : 204 cd/m2
  28. Maximum Frame-Average Light Level : 55 cd/m2

  29. Audio
  30. ID : 2
  31. Format : E-AC-3 JOC
  32. Format/Info : Enhanced AC-3 with Joint Object Coding
  33. Commercial name : Dolby Digital Plus with Dolby Atmos
  34. Codec ID : A_EAC3
  35. Duration : 2 h 5 min
  36. Bit rate mode : Constant
  37. Bit rate : 768 kb/s
  38. Channel(s) : 6 channels
  39. Channel layout : L R C LFE Ls Rs
  40. Sampling rate : 48.0 kHz
  41. Frame rate : 31.250 FPS (1536 SPF)
  42. Compression mode : Lossy
  43. Stream size : 689 MiB (4%)
  44. Language : English
  45. Service kind : Complete Main
  46. Default : Yes
  47. Forced : No
  48. Complexity index : 16
  49. Number of dynamic objects : 15
  50. Bed channel count : 1 channel
  51. Bed channel configuration : LFE

  52. Text #1
  53. ID : 3
  54. Format : UTF-8
  55. Codec ID : S_TEXT/UTF8
  56. Codec ID/Info : UTF-8 Plain Text
  57. Title : English
  58. Language : English
  59. Default : No
  60. Forced : No

  61. Text #2
  62. ID : 4
  63. Format : UTF-8
  64. Codec ID : S_TEXT/UTF8
  65. Codec ID/Info : UTF-8 Plain Text
  66. Title : Latin America Spanish
  67. Language : Spanish
  68. Default : No
  69. Forced : No
复制代码

犹大与黑弥赛亚 / 耶稣曾是我兄弟 / 耶稣是我同伴 / Jesus Is My Homeboy/耶稣是我同伙4k Judas.and.the.Black.Messiah.2021.HDR.2160p.WEB.H265.电影下载

耶稣是我同伙4k Judas.and.the.Black.Messiah.2021.HDR.2160p.WEB.H265【16.43 GB】
[Hao4k]耶稣是我同伙4k Judas.and.the.Black.Messiah.2021.HDR.2160p.WEB.H265-NAISU.torrent (82.89 KB)
回复

使用道具 举报

全部回复51

dyczw 发表于 2021-2-13 08:17:35

dyczw 沙发

2021-2-13 08:17:35

感谢分享,辛苦了
回复 支持 反对

使用道具 举报

dk30129 发表于 2021-2-13 09:00:37

dk30129 板凳

2021-2-13 09:00:37

谢谢分享,顶你!!!
回复 支持 反对

使用道具 举报

ppp74 发表于 2021-2-13 09:41:55

ppp74 地板

2021-2-13 09:41:55

谢谢无私分享
回复 支持 反对

使用道具 举报

罗洋 发表于 2021-2-13 09:43:10

罗洋 5#

2021-2-13 09:43:10

记得这部电影还不错的样子
回复 支持 反对

使用道具 举报

夹板 发表于 2021-2-13 09:44:40

夹板 6#

2021-2-13 09:44:40

感谢分享,辛苦了
回复 支持 反对

使用道具 举报

zzskxzl 发表于 2021-2-13 10:26:23

zzskxzl 7#

2021-2-13 10:26:23

感谢分享,辛苦了
回复 支持 反对

使用道具 举报

Makoto8023 发表于 2021-2-13 10:28:45

Makoto8023 8#

2021-2-13 10:28:45

谢谢分享
回复 支持 反对

使用道具 举报

zengzzs 发表于 2021-2-13 10:50:00

zengzzs 9#

2021-2-13 10:50:00

收藏了,感谢分享
回复 支持 反对

使用道具 举报

Ken_Zhao 发表于 2021-2-13 12:01:20

Ken_Zhao 10#

2021-2-13 12:01:20

多谢楼主的分享,收藏了
回复 支持 反对

使用道具 举报

vance762003 发表于 2021-2-13 13:38:28

vance762003 11#

2021-2-13 13:38:28

感谢分享
回复 支持 反对

使用道具 举报

yale 发表于 2021-2-13 19:10:29

yale 12#

2021-2-13 19:10:29

谢谢分享
回复 支持 反对

使用道具 举报

panbell 发表于 2021-2-13 20:04:00

panbell 13#

2021-2-13 20:04:00

感谢分享好电影
回复 支持 反对

使用道具 举报

yangly 发表于 2021-2-13 22:08:12

yangly 14#

2021-2-13 22:08:12

谢谢无私分享
回复 支持 反对

使用道具 举报

xiuyanzhang 发表于 2021-2-14 07:40:45

xiuyanzhang 15#

2021-2-14 07:40:45

中文字幕哪里有
回复 支持 反对

使用道具 举报

YGMIKE 发表于 2021-2-14 08:10:56

YGMIKE 16#

2021-2-14 08:10:56

感谢分享好电影
回复 支持 反对

使用道具 举报

dk30129 发表于 2021-2-14 09:42:38

dk30129 17#

2021-2-14 09:42:38

谢谢分享,中文字幕哪里有?
回复 支持 1 反对 0

使用道具 举报

Makoto8023 发表于 2021-2-14 11:04:54

Makoto8023 18#

2021-2-14 11:04:54

谢谢分享啊
回复 支持 反对

使用道具 举报

   发表回复

您需要登录后才可以回帖 登录 | 立即注册

返回列表 本版积分规则

  • 在线客服

  • 返回顶部