微博 微信

Hao4K影音

电影频道
电影封面:
片  名: 金蝉脱壳3:恶魔车站4K
电影分类: 动作 犯罪 
国  家: 美国 
年  代: 2019年
分 辨 率: 4K(3840x2160)
电影格式: MKV|REMUX 
画质标准: HDR10 
音质编码: Dolby Digital Plus Audio 
电影声道: 5.1声道 
帧数/FPS: 23.976 FPS
电影语言: 英文原版 
资源大小: 11.11 GB
导  演: 约翰·赫兹菲尔德
豆瓣评分: 3.8 分
中文字幕: -
剧情简介: 某香港科技大亨的女儿失踪,Breslin发现罪犯是自己一个老对手的疯狂儿子,他还绑架了Breslin的爱人Abigail,并把她关在名为“恶魔车站”的巨大监狱里。 Breslin将和自己的团队硬闯虎穴,试图劫狱。
金蝉脱壳3 / Escape Plan 3: Devil's Station/金蝉脱壳3:恶魔车站4K.Escape.Plan.The.Extractors.2019.2160p.AMZN.WEB-DL.x265.10bit.HDR10plus.DTS-HD.MA.5.1-4k电影信息
  1. Video
  2. ID : 1
  3. Format : HEVC
  4. Format/Info : High Efficiency Video Coding
  5. Format profile : Main 10@L5@Main
  6. HDR format : SMPTE ST 2094 App 4, Version 1, HDR10+ Profile B compatible
  7. Codec ID : V_MPEGH/ISO/HEVC
  8. Duration : 1 h 27 min
  9. Bit rate : 14.6 Mb/s
  10. Width : 3 840 pixels
  11. Height : 1 600 pixels
  12. Display aspect ratio : 2.40:1
  13. Frame rate mode : Constant
  14. Frame rate : 23.976 (24000/1001) FPS
  15. Color space : YUV
  16. Chroma subsampling : 4:2:0
  17. Bit depth : 10 bits
  18. Bits/(Pixel*Frame) : 0.099
  19. Stream size : 8.95 GiB (81%)
  20. Default : Yes
  21. Forced : No
  22. Color range : Limited
  23. Color primaries : BT.2020
  24. Transfer characteristics : PQ
  25. Matrix coefficients : BT.2020 non-constant
  26. Mastering display color primaries : Display P3
  27. Mastering display luminance : min: 0.0050 cd/m2, max: 1000 cd/m2
  28. Maximum Content Light Level : 2756 cd/m2
  29. Maximum Frame-Average Light Level : 285 cd/m2

  30. Audio #1
  31. ID : 2
  32. Format : DTS XLL
  33. Format/Info : Digital Theater Systems
  34. Commercial name : DTS-HD Master Audio
  35. Codec ID : A_DTS
  36. Duration : 1 h 27 min
  37. Bit rate mode : Variable
  38. Bit rate : 2 863 kb/s
  39. Channel(s) : 6 channels
  40. Channel layout : C L R Ls Rs LFE
  41. Sampling rate : 48.0 kHz
  42. Frame rate : 93.750 FPS (512 SPF)
  43. Bit depth : 24 bits
  44. Compression mode : Lossless
  45. Stream size : 1.75 GiB (16%)
  46. Title : DTS-HD MA 5.1
  47. Language : English
  48. Default : Yes
  49. Forced : No

  50. Audio #2
  51. ID : 3
  52. Format : E-AC-3
  53. Format/Info : Enhanced AC-3
  54. Commercial name : Dolby Digital Plus
  55. Codec ID : A_EAC3
  56. Duration : 1 h 27 min
  57. Bit rate mode : Constant
  58. Bit rate : 640 kb/s
  59. Channel(s) : 6 channels
  60. Channel layout : L R C LFE Ls Rs
  61. Sampling rate : 48.0 kHz
  62. Frame rate : 31.250 FPS (1536 SPF)
  63. Compression mode : Lossy
  64. Stream size : 401 MiB (4%)
  65. Title : DDP 5.1
  66. Language : English
  67. Service kind : Complete Main
  68. Default : No
  69. Forced : No

  70. Text #1
  71. ID : 4
  72. Format : UTF-8
  73. Codec ID : S_TEXT/UTF8
  74. Codec ID/Info : UTF-8 Plain Text
  75. Duration : 1 h 20 min
  76. Bit rate : 37 b/s
  77. Count of elements : 775
  78. Stream size : 22.3 KiB (0%)
  79. Title : English-SRT
  80. Language : English
  81. Default : Yes
  82. Forced : No

  83. Text #2
  84. ID : 5
  85. Format : PGS
  86. Muxing mode : zlib
  87. Codec ID : S_HDMV/PGS
  88. Codec ID/Info : Picture based subtitle format used on BDs/HD-DVDs
  89. Duration : 1 h 13 min
  90. Bit rate : 2 411 b/s
  91. Count of elements : 170
  92. Stream size : 1.27 MiB (0%)
  93. Title : English-FORCED
  94. Language : English
  95. Default : No
  96. Forced : No

  97. Text #3
  98. ID : 6
  99. Format : PGS
  100. Muxing mode : zlib
  101. Codec ID : S_HDMV/PGS
  102. Codec ID/Info : Picture based subtitle format used on BDs/HD-DVDs
  103. Duration : 1 h 20 min
  104. Bit rate : 27.3 kb/s
  105. Count of elements : 1703
  106. Stream size : 15.7 MiB (0%)
  107. Title : English-PGS
  108. Language : English
  109. Default : No
  110. Forced : No

  111. Text #4
  112. ID : 7
  113. Format : PGS
  114. Muxing mode : zlib
  115. Codec ID : S_HDMV/PGS
  116. Codec ID/Info : Picture based subtitle format used on BDs/HD-DVDs
  117. Duration : 1 h 18 min
  118. Bit rate : 20.1 kb/s
  119. Count of elements : 1295
  120. Stream size : 11.3 MiB (0%)
  121. Title : Spanish-PGS
  122. Language : Spanish
  123. Default : No
  124. Forced : No

  125. Menu
  126. 00:00:00.000 : en:Chapter 01
  127. 00:04:06.246 : en:Chapter 02
  128. 00:07:29.324 : en:Chapter 03
  129. 00:12:32.668 : en:Chapter 04
  130. 00:19:10.316 : en:Chapter 05
  131. 00:23:18.313 : en:Chapter 06
  132. 00:25:24.398 : en:Chapter 07
  133. 00:31:18.460 : en:Chapter 08
  134. 00:37:05.640 : en:Chapter 09
  135. 00:44:02.848 : en:Chapter 10
  136. 00:47:28.304 : en:Chapter 11
  137. 00:52:19.511 : en:Chapter 12
  138. 00:56:14.287 : en:Chapter 13
  139. 01:03:40.650 : en:Chapter 14
  140. 01:09:24.869 : en:Chapter 15
  141. 01:16:48.020 : en:Chapter 16
复制代码

金蝉脱壳3 / Escape Plan 3: Devil's Station/金蝉脱壳3:恶魔车站4K.Escape.Plan.The.Extractors.2019.2160p.AMZN.WEB-DL.x265.10bit.HDR10plus.DTS-HD.MA.5.1-4K电影下载
金蝉脱壳3:恶魔车站4K.Escape.Plan.The.Extractors.2019.2160p.AMZN.WEB-DL.x265.10bit.HDR10plus.DTS-HD.MA.5.1【4K HDR 11.11 GB】
[Hao4K]金蝉脱壳3:恶魔车站4K.Escape.Plan.The.Extractors.2019.2160p.AMZN.WEB-DL.x.torrent (56.17 KB)
回复

使用道具 举报

全部回复61

andytr 发表于 2021-2-17 22:28:31

andytr 沙发

2021-2-17 22:28:31

谢谢分享 好电影
回复 支持 反对

使用道具 举报

w849233171 发表于 2021-2-18 02:23:10

w849233171 板凳

2021-2-18 02:23:10

啊这 3.8分也太低了点都不敢下了
回复 支持 反对

使用道具 举报

dyczw 发表于 2021-2-18 06:18:50

dyczw 地板

2021-2-18 06:18:50

感谢分享,辛苦了
回复 支持 反对

使用道具 举报

我爱天天007 发表于 2021-2-18 07:52:20

我爱天天007 5#

2021-2-18 07:52:20

谢谢分享 只看过1看看这个如何
回复 支持 反对

使用道具 举报

dk30129 发表于 2021-2-18 08:17:52

dk30129 6#

2021-2-18 08:17:52


谢谢分享 ,好电影,辛苦了!
回复 支持 反对

使用道具 举报

zhao19843 发表于 2021-2-18 09:00:31

zhao19843 7#

2021-2-18 09:00:31

3.8的分也是不容易~~
回复 支持 反对

使用道具 举报

笑傲江湖K 发表于 2021-2-18 09:08:24

笑傲江湖K 8#

2021-2-18 09:08:24



谢谢分享
回复 支持 反对

使用道具 举报

maxb 发表于 2021-2-18 09:11:29

maxb 9#

2021-2-18 09:11:29

谢谢分享 好电影
回复 支持 反对

使用道具 举报

bonna 发表于 2021-2-18 09:42:07

bonna 10#

2021-2-18 09:42:07

比第二部怎么样?
回复 支持 反对

使用道具 举报

Makoto8023 发表于 2021-2-18 10:07:32

Makoto8023 11#

2021-2-18 10:07:32

谢谢分享
回复 支持 反对

使用道具 举报

一笑3 发表于 2021-2-18 11:37:33

一笑3 12#

2021-2-18 11:37:33

谢谢分享
回复 支持 反对

使用道具 举报

xxw8888 发表于 2021-2-18 11:45:34

xxw8888 13#

2021-2-18 11:45:34

3.8分也太低了,谢谢分享
回复 支持 反对

使用道具 举报

andywjhh 发表于 2021-2-18 12:38:13

andywjhh 14#

2021-2-18 12:38:13

感谢分享好电影啊
回复 支持 反对

使用道具 举报

bbgrnnji 发表于 2021-2-18 12:45:02

bbgrnnji 15#

2021-2-18 12:45:02

片源开始有了,但高分好片不多啊
回复 支持 反对

使用道具 举报

海贼王2号 发表于 2021-2-18 14:14:41 Hao4K手机版

海贼王2号 16#

2021-2-18 14:14:41

贴吧过来的,片源还是稀缺呀
回复 支持 反对

使用道具 举报

kennethlin168 发表于 2021-2-18 14:30:01

kennethlin168 17#

2021-2-18 14:30:01

感谢分享
回复 支持 反对

使用道具 举报

hdq001300 发表于 2021-2-18 14:43:40

hdq001300 18#

2021-2-18 14:43:40

谢谢分享 ,好电影,辛苦了!
回复 支持 反对

使用道具 举报

   发表回复

您需要登录后才可以回帖 登录 | 立即注册

返回列表 本版积分规则

  • 在线客服

  • 返回顶部