微博 微信

Hao4K影音

电影频道
电影封面:
片  名: 佐罗传奇4K
电影分类: 动作 冒险 
国  家: 美国 
年  代: 00年代
分 辨 率: 4K(3840x2160)
电影格式: MKV|REMUX 
画质标准: HDR 
音质编码: DTS-HD Master Audio 
电影声道: 5.1声道 
帧数/FPS: 23.976 FPS
电影语言: 中文繁体 英文原版 
资源大小: 21 GB
导  演: 马丁·坎贝尔
豆瓣评分: 7.0 分
中文字幕: -
剧情简介: 19世纪中叶,黑侠佐罗的传奇故事在加利福尼亚继续流传。亚利桑德罗(安东尼奥·班德拉斯 Antonio Banderas 饰)从上一代佐罗手中接过这个正义的名号,虽然已经和伊莲娜(凯瑟琳·泽塔琼斯 Catherine Zeta-Jones 饰)完婚,并育有可爱的儿子瓦金(Adrian Alonso 饰),但他的正义事业从未停止。是时加州即将成为美利坚合众国的第31个州,百姓期盼已久的自由即将到来。然而就在此时,疯狂的麦吉文伯爵(Nick Chinlund 饰)及一个神秘的宗教组织却以武力抵制建州。人民的自由和安全危在旦夕,佐罗不得不以一己之力与他们展开对抗。另一方面,由于长期冷落家人,他和伊莲娜的婚姻也亮起了红灯。这个正义战士真正到了内忧外患的地步……
本片荣获2006年青年艺术家奖剧情片最佳儿童表演奖(Adrian Alonso)
蒙面侠苏洛2:不朽传奇 / 黑侠梭罗Z传奇/佐罗传奇4K.The.Legend.of.Zorro.2005.2160p.AMZN.WEB-DL.x265.10bit.HDR10plus.DTS-HD.MA.TrueHD.5.1-4k电影信息
  1. Video
  2. ID : 1
  3. Format : HEVC
  4. Format/Info : High Efficiency Video Coding
  5. Format profile : Main 10@L5@Main
  6. HDR format : SMPTE ST 2094 App 4, Version 1, HDR10+ Profile B compatible
  7. Codec ID : V_MPEGH/ISO/HEVC
  8. Duration : 2 h 10 min
  9. Bit rate : 14.7 Mb/s
  10. Width : 3 840 pixels
  11. Height : 1 632 pixels
  12. Display aspect ratio : 2.35:1
  13. Frame rate mode : Constant
  14. Frame rate : 23.976 (24000/1001) FPS
  15. Color space : YUV
  16. Chroma subsampling : 4:2:0
  17. Bit depth : 10 bits
  18. Bits/(Pixel*Frame) : 0.098
  19. Stream size : 13.4 GiB (64%)
  20. Default : Yes
  21. Forced : No
  22. Color range : Limited
  23. Color primaries : BT.2020
  24. Transfer characteristics : PQ
  25. Matrix coefficients : BT.2020 non-constant
  26. Mastering display color primaries : Display P3
  27. Mastering display luminance : min: 0.0050 cd/m2, max: 4000 cd/m2
  28. Maximum Content Light Level : 895 cd/m2
  29. Maximum Frame-Average Light Level : 351 cd/m2

  30. Audio #1
  31. ID : 2
  32. Format : MLP FBA
  33. Format/Info : Meridian Lossless Packing FBA
  34. Commercial name : Dolby TrueHD
  35. Codec ID : A_TRUEHD
  36. Duration : 2 h 10 min
  37. Bit rate mode : Variable
  38. Bit rate : 3 557 kb/s
  39. Maximum bit rate : 5 445 kb/s
  40. Channel(s) : 6 channels
  41. Channel layout : L R C LFE Ls Rs
  42. Sampling rate : 48.0 kHz
  43. Frame rate : 1 200.000 FPS (40 SPF)
  44. Compression mode : Lossless
  45. Stream size : 3.24 GiB (15%)
  46. Title : TrueHD 5.1
  47. Language : English
  48. Default : Yes
  49. Forced : No

  50. Audio #2
  51. ID : 3
  52. Format : DTS XLL
  53. Format/Info : Digital Theater Systems
  54. Commercial name : DTS-HD Master Audio
  55. Codec ID : A_DTS
  56. Duration : 2 h 10 min
  57. Bit rate mode : Variable
  58. Bit rate : 3 929 kb/s
  59. Channel(s) : 6 channels
  60. Channel layout : C L R Ls Rs LFE
  61. Sampling rate : 48.0 kHz
  62. Frame rate : 93.750 FPS (512 SPF)
  63. Bit depth : 24 bits
  64. Compression mode : Lossless
  65. Stream size : 3.58 GiB (17%)
  66. Title : DTS-HD MA 5.1
  67. Language : English
  68. Default : No
  69. Forced : No

  70. Audio #3
  71. ID : 4
  72. Format : E-AC-3
  73. Format/Info : Enhanced AC-3
  74. Commercial name : Dolby Digital Plus
  75. Codec ID : A_EAC3
  76. Duration : 2 h 10 min
  77. Bit rate mode : Constant
  78. Bit rate : 640 kb/s
  79. Channel(s) : 6 channels
  80. Channel layout : L R C LFE Ls Rs
  81. Sampling rate : 48.0 kHz
  82. Frame rate : 31.250 FPS (1536 SPF)
  83. Compression mode : Lossy
  84. Stream size : 597 MiB (3%)
  85. Title : DDP 5.1
  86. Language : English
  87. Service kind : Complete Main
  88. Default : No
  89. Forced : No

  90. Text #1
  91. ID : 5
  92. Format : UTF-8
  93. Codec ID : S_TEXT/UTF8
  94. Codec ID/Info : UTF-8 Plain Text
  95. Duration : 2 h 3 min
  96. Bit rate : 40 b/s
  97. Count of elements : 1540
  98. Stream size : 36.7 KiB (0%)
  99. Title : English-SRT
  100. Language : English
  101. Default : Yes
  102. Forced : No

  103. Text #2
  104. ID : 6
  105. Format : PGS
  106. Muxing mode : zlib
  107. Codec ID : S_HDMV/PGS
  108. Codec ID/Info : Picture based subtitle format used on BDs/HD-DVDs
  109. Duration : 1 min 28 s
  110. Bit rate : 57.6 kb/s
  111. Count of elements : 56
  112. Stream size : 621 KiB (0%)
  113. Title : English (Forced Only)
  114. Language : English
  115. Default : No
  116. Forced : No

  117. Text #3
  118. ID : 7
  119. Format : PGS
  120. Muxing mode : zlib
  121. Codec ID : S_HDMV/PGS
  122. Codec ID/Info : Picture based subtitle format used on BDs/HD-DVDs
  123. Duration : 2 h 0 min
  124. Bit rate : 21.2 kb/s
  125. Count of elements : 1860
  126. Stream size : 18.3 MiB (0%)
  127. Title : English
  128. Language : English
  129. Default : No
  130. Forced : No

  131. Text #4
  132. ID : 8
  133. Format : PGS
  134. Muxing mode : zlib
  135. Codec ID : S_HDMV/PGS
  136. Codec ID/Info : Picture based subtitle format used on BDs/HD-DVDs
  137. Duration : 2 h 3 min
  138. Bit rate : 16.2 kb/s
  139. Count of elements : 2214
  140. Stream size : 14.2 MiB (0%)
  141. Title : English (SDH)
  142. Language : English
  143. Default : No
  144. Forced : No

  145. Text #5
  146. ID : 9
  147. Format : PGS
  148. Muxing mode : zlib
  149. Codec ID : S_HDMV/PGS
  150. Codec ID/Info : Picture based subtitle format used on BDs/HD-DVDs
  151. Duration : 2 h 1 min
  152. Bit rate : 16.1 kb/s
  153. Count of elements : 1888
  154. Stream size : 14.0 MiB (0%)
  155. Title : Chinese (Simplified)
  156. Language : Chinese
  157. Default : No
  158. Forced : No

  159. Text #6
  160. ID : 10
  161. Format : PGS
  162. Muxing mode : zlib
  163. Codec ID : S_HDMV/PGS
  164. Codec ID/Info : Picture based subtitle format used on BDs/HD-DVDs
  165. Duration : 2 h 1 min
  166. Bit rate : 18.1 kb/s
  167. Count of elements : 1848
  168. Stream size : 15.6 MiB (0%)
  169. Title : Czech
  170. Language : Czech
  171. Default : No
  172. Forced : No


  173. Menu
  174. 00:00:00.000 : en:Studio Logos
  175. 00:00:54.000 : en:The history of California is explained, various landscapes
  176. 00:02:02.000 : en:People of California vote, voting venue
  177. 00:03:59.000 : en:Jacob threatens the townsmen, voting venue
  178. 00:07:40.000 : en:Zorro fights against Jacob\'s people, bridge
  179. 00:11:02.000 : en:Zorro delivers the box of votes to the Governor, Governor\'s house
  180. 00:12:32.000 : en:Don Alejandro returns home, Don Alejandro\'s house
  181. 00:13:55.000 : en:Don Alejandro & Elena fight over Zorro, Don Alejandro\'s house
  182. 00:18:46.000 : en:Harrigan & Pike follow Elena, Street
  183. 00:21:37.000 : en:Alejandro\'s friends advice him on his marriage, spa centre
  184. 00:23:00.000 : en:Fred decides to take Alejandro to a party, hotel
  185. 00:24:55.000 : en:Joaquin argues with his teacher, school
  186. 00:27:00.000 : en:Jacob gets into altercation with Alejandro, Outside Guillermo\'s shop
  187. 00:29:41.000 : en:Alejandro finds Elena in Armand\'s party, Armand\'s vineyard
  188. 00:33:14.000 : en:Alejandro embarrasses himself, Armand\'s vineyard
  189. 00:38:02.000 : en:Alejandro drinks too much & starts talking to himself, street
  190. 00:39:57.000 : en:Alejandro tells Elena about the explosion, marketplace
  191. 00:42:47.000 : en:Armand challenges Alejandro to a polo game, game field
  192. 00:45:24.000 : en:Frey tells Alejandro about the problems going on in the town, church
  193. 00:46:41.000 : en:Jacob threatens Guillermo, Guillermo\'s house
  194. 00:48:07.000 : en:Jacob\'s men attack Guillermo\'s property, Guillermo\'s house
  195. 00:53:17.000 : en:Alejandro asks God for help, church
  196. 00:54:12.000 : en:Elena sends a message to Harrigan & Pike, Elena\'s rest house
  197. 00:55:16.000 : en:Elena dines with Armand, Armand\'s house
  198. 00:57:41.000 : en:Alejandro finds out what Armand is up to, Armand\'s house
  199. 01:01:27.000 : en:Armand makes a proposal to Elena, Armand\'s house
  200. 01:06:02.000 : en:Jacob insults Father Quintero, village street
  201. 01:07:59.000 : en:Zorro tries rescues Joaquin, mountain
  202. 01:10:59.000 : en:Joaquin shows Alejandro the soap he found, valley
  203. 01:13:15.000 : en:Alejandro tells Frey about the symbol that he saw on the carter, Alejandro\'s house
  204. 01:14:18.000 : en:Armand drops Elena off to her place, Elena\'s house
  205. 01:16:15.000 : en:Harrigan & Pike go after Alejandro, marketplace
  206. 01:19:41.000 : en:Elena rises early, Armand\'s house
  207. 01:21:17.000 : en:Joaquin tries to help Alejandro escape from prison, jail
  208. 01:24:28.000 : en:Alejandro leaves Joaquin to Frey, chruch
  209. 01:25:31.000 : en:Alejandro & Elena fight against Armand\'s men, vineyard
  210. 01:28:05.000 : en:Alejandro & Elena come to know the truth about the soap, vineyard
  211. 01:30:44.000 : en:Jacob interrogates Frey about Zorro, chruch
  212. 01:32:23.000 : en:Armand gives a tour of his work to his colleagues, vineyard
  213. 01:34:11.000 : en:Armand returns back home, Armand\'s house
  214. 01:36:21.000 : en:Ferroq reveals the truth about Elena, Armand\'s house
  215. 01:38:28.000 : en:Alejandro defuses the bottle of nitroglycerin, vineyard
  216. 01:40:35.000 : en:Zorro\'s identity is compromised, vineyard
  217. 01:43:26.000 : en:Frey tries to assist Alejandro, vineyard
  218. 01:45:56.000 : en:Zorro chases the train, train
  219. 01:49:56.000 : en:Elena assists in besting Joaquin, train
  220. 01:51:59.000 : en:Train gets switched up, train
  221. 01:54:25.000 : en:Joaquin continues messing with the train, train
  222. 01:56:49.000 : en:The train runs into trouble, train
  223. 01:59:51.000 : en:Alejandro & Elena have wedding, Alejandro\'s house
  224. 02:02:53.000 : en:Zorro leaves to assist people in need, Alejandro\'s house
  225. 02:03:53.000 : en:End credits
复制代码

蒙面侠苏洛2:不朽传奇 / 黑侠梭罗Z传奇/佐罗传奇4K.The.Legend.of.Zorro.2005.2160p.AMZN.WEB-DL.x265.10bit.HDR10plus.DTS-HD.MA.TrueHD.5.1-4K电影下载
佐罗传奇4K.The.Legend.of.Zorro.2005.2160p.AMZN.WEB-DL.x265.10bit.HDR10plus.DTS-HD.MA.TrueHD.5.1【4K HDR 21 GB】
[Hao4K]佐罗传奇4K.The.Legend.of.Zorro.2005.2160p.AMZN.WEB-DL.x265.10bit.HDR10plu.torrent (53.1 KB)
回复

使用道具 举报

全部回复44

yanggang8804 发表于 2021-2-18 10:28:42

yanggang8804 沙发

2021-2-18 10:28:42

感谢分享
回复 支持 反对

使用道具 举报

ykych 发表于 2021-2-18 10:50:50

ykych 板凳

2021-2-18 10:50:50

谢谢分享。。。。
回复 支持 反对

使用道具 举报

daxiaodewo 发表于 2021-2-18 11:10:56

daxiaodewo 地板

2021-2-18 11:10:56

感谢分享。
回复 支持 1 反对 0

使用道具 举报

ywf6168 发表于 2021-2-18 11:56:13

ywf6168 5#

2021-2-18 11:56:13

1080p看过,很不错,感谢分享
回复 支持 1 反对 0

使用道具 举报

心灵在旅行 发表于 2021-2-18 11:59:22

心灵在旅行 6#

2021-2-18 11:59:22

感谢楼主分享
回复 支持 1 反对 0

使用道具 举报

andywjhh 发表于 2021-2-18 12:30:54

andywjhh 7#

2021-2-18 12:30:54

感谢分享好电影啊
回复 支持 反对

使用道具 举报

caojk 发表于 2021-2-18 14:28:37

caojk 8#

2021-2-18 14:28:37


感谢分享好电影经典
回复 支持 反对

使用道具 举报

lyjnyh 发表于 2021-2-18 15:45:58

lyjnyh 9#

2021-2-18 15:45:58

谢谢分享  非常感谢 支持
回复 支持 反对

使用道具 举报

lyjnyh 发表于 2021-2-18 15:46:38

lyjnyh 10#

2021-2-18 15:46:38

非常感谢 好
回复 支持 反对

使用道具 举报

1273191449 发表于 2021-2-18 16:05:45

1273191449 11#

2021-2-18 16:05:45

感谢楼主
回复 支持 反对

使用道具 举报

hlj1222 发表于 2021-2-18 17:03:47

hlj1222 12#

2021-2-18 17:03:47

谢谢楼主分享如此经典的老电影,值得再看
回复 支持 反对

使用道具 举报

秋天的树 发表于 2021-2-18 17:50:40

秋天的树 13#

2021-2-18 17:50:40


感谢楼主.!!
回复 支持 反对

使用道具 举报

highrpmclub 发表于 2021-2-18 17:51:52

highrpmclub 14#

2021-2-18 17:51:52

泽塔琼斯是真美,气质太好
回复 支持 反对

使用道具 举报

yale 发表于 2021-2-18 22:25:48

yale 15#

2021-2-18 22:25:48

谢谢分享
回复 支持 反对

使用道具 举报

zengzzs 发表于 2021-2-18 23:23:44

zengzzs 16#

2021-2-18 23:23:44

支持了,期待原盘
回复 支持 反对

使用道具 举报

leopold927 发表于 2021-2-19 08:07:45

leopold927 17#

2021-2-19 08:07:45

谢谢分享经典好片
回复 支持 反对

使用道具 举报

hao59 发表于 2021-2-19 08:11:40

hao59 18#

2021-2-19 08:11:40

谢谢分享经典好片
回复 支持 反对

使用道具 举报

   发表回复

您需要登录后才可以回帖 登录 | 立即注册

返回列表 本版积分规则

  • 在线客服

  • 返回顶部