微博 微信

Hao4K影音

电影频道
电影封面:
片  名: 托尼·克罗斯4K
电影分类: 纪录片 
国  家: 德国 
年  代: 2019年
分 辨 率: 4K(3840x2160)
电影格式: MKV|REMUX 
画质标准: SDR 
音质编码: Dolby Digital Plus Audio 
电影声道: 5.1声道 
帧数/FPS: 23.976 FPS
电影语言: 英文原版 
资源大小: 8.27 GB
导  演: Manfred Oldenburg
豆瓣评分: 8.9 分
中文字幕: -
剧情简介: 皇马主力托尼·克罗斯纪录片[克罗斯](Kroos,暂译)首发预告。影片将追随克罗斯从格赖夫斯瓦尔德到马德里的脚步,从拜仁慕尼黑、勒沃库森到皇家马德里。齐达内、克洛泽、莫德里奇等均出镜畅聊。克洛泽也将回忆2014年世界杯德国夺冠,2016-2018皇马三连冠等高光时刻,也会重现在拜仁、2012年欧联决赛、2018年俄罗斯世界杯等低谷时刻。影片由Manfred Oldenburg执导,于7月4日德国上映。
克罗斯 / Kroos/托尼·克罗斯4K.Toni.Kroos.2019.GERMAN.ENSUBBED.2160p.AMZN.WEB-DL.x265.8bit.SDR.DDP5.1-4k电影信息
  1. Video
  2. ID : 1
  3. Format : HEVC
  4. Format/Info : High Efficiency Video Coding
  5. Format profile : Main@L5@Main
  6. Codec ID : V_MPEGH/ISO/HEVC
  7. Duration : 1 h 54 min
  8. Bit rate : 9 717 kb/s
  9. Width : 3 840 pixels
  10. Height : 1 600 pixels
  11. Display aspect ratio : 2.40:1
  12. Frame rate mode : Constant
  13. Frame rate : 25.000 FPS
  14. Standard : NTSC
  15. Color space : YUV
  16. Chroma subsampling : 4:2:0
  17. Bit depth : 8 bits
  18. Bits/(Pixel*Frame) : 0.063
  19. Stream size : 7.76 GiB (94%)
  20. Writing library : x265 2.9_elemental+1-9e0607aa5b6f:[Linux][GCC 4.8.5][64 bit] 8bit+10bit+12bit
  21. Encoding settings : cpuid=1111039 / frame-threads=2 / wpp / no-pmode / no-pme / psnr / ssim / log-level=2 / csv / csv-log-level=2 / input-csp=1 / input-res=3840x1600 / interlace=0 / total-frames=0 / level-idc=50 / high-tier=1 / uhd-bd=0 / ref=5 / no-allow-non-conformance / no-repeat-headers / annexb / no-aud / no-hrd / info / hash=0 / no-temporal-layers / no-open-gop / min-keyint=64 / keyint=125 / gop-lookahead=0 / bframes=8 / b-adapt=2 / b-pyramid / bframe-bias=0 / rc-lookahead=125 / lookahead-slices=4 / scenecut=0 / radl=0 / no-intra-refresh / ctu=64 / min-cu-size=8 / rect / amp / max-tu-size=32 / tu-inter-depth=4 / tu-intra-depth=4 / limit-tu=4 / rdoq-level=2 / dynamic-rd=0.00 / no-ssim-rd / signhide / tskip / nr-intra=100 / nr-inter=600 / no-constrained-intra / strong-intra-smoothing / max-merge=3 / limit-refs=3 / limit-modes / me=3 / subme=3 / merange=57 / temporal-mvp / weightp / weightb / no-analyze-src-pics / deblock=0:0 / no-sao / no-sao-non-deblock / rd=4 / no-early-skip / no-rskip / no-fast-intra / tskip-fast / no-cu-lossless / b-intra / no-splitrd-skip / rdpenalty=0 / psy-rd=4.00 / psy-rdoq=10.00 / no-rd-refine / no-lossless / cbqpoffs=0 / crqpoffs=0 / rc=crf / crf=25.0 / qcomp=0.60 / qpstep=1 / stats-write=0 / stats-read=0 / vbv-maxrate=15000 / vbv-bufsize=20000 / vbv-init=0.9 / crf-max=0.0 / crf-min=0.0 / ipratio=1.10 / pbratio=1.00 / aq-mode=0 / aq-strength=1.50 / no-cutree / zone-count=0 / no-strict-cbr / qg-size=32 / rc-grain / qpmax=69 / qpmin=0 / const-vbv / sar=1 / overscan=0 / videoformat=2 / range=0 / colorprim=1 / transfer=1 / colormatrix=1 / chromaloc=0 / display-window=0 / max-cll=0,0 / min-luma=0 / max-luma=255 / log2-max-poc-lsb=8 / vui-timing-info / vui-hrd-info / slices=1 / opt-qp-pps / no-opt-ref-list-length-pps / no-multi-pass-opt-rps / scenecut-bias=0.05 / no-opt-cu-delta-qp / no-aq-motion / no-hdr / no-hdr-opt / no-dhdr10-opt / no-idr-recovery-sei / analysis-reuse-level=5 / scale-factor=0 / refine-intra=0 / refine-inter=0 / refine-mv=0 / no-limit-sao / ctu-info=0 / no-lowpass-dct / refine-mv-type=0 / copy-pic=1 / max-ausize-factor=1.0 / no-dynamic-refine / no-single-sei
  22. Language : German
  23. Default : Yes
  24. Forced : No
  25. Color range : Limited
  26. Color primaries : BT.709
  27. Transfer characteristics : BT.709
  28. Matrix coefficients : BT.709

  29. Audio
  30. ID : 2
  31. Format : E-AC-3
  32. Format/Info : Enhanced AC-3
  33. Commercial name : Dolby Digital Plus
  34. Codec ID : A_EAC3
  35. Duration : 1 h 54 min
  36. Bit rate mode : Constant
  37. Bit rate : 640 kb/s
  38. Channel(s) : 6 channels
  39. Channel layout : L R C LFE Ls Rs
  40. Sampling rate : 48.0 kHz
  41. Frame rate : 31.250 FPS (1536 SPF)
  42. Compression mode : Lossy
  43. Stream size : 523 MiB (6%)
  44. Title : DDP 5.1
  45. Language : German
  46. Service kind : Complete Main
  47. Default : Yes
  48. Forced : No

  49. Text
  50. ID : 3
  51. Format : UTF-8
  52. Codec ID : S_TEXT/UTF8
  53. Codec ID/Info : UTF-8 Plain Text
  54. Duration : 1 h 51 min
  55. Bit rate : 69 b/s
  56. Count of elements : 1454
  57. Stream size : 56.8 KiB (0%)
  58. Title : SDH
  59. Language : English
  60. Default : No
  61. Forced : No
复制代码

克罗斯 / Kroos/托尼·克罗斯4K.Toni.Kroos.2019.GERMAN.ENSUBBED.2160p.AMZN.WEB-DL.x265.8bit.SDR.DDP5.1-4K电影下载

托尼·克罗斯4K.Toni.Kroos.2019.GERMAN.ENSUBBED.2160p.AMZN.WEB-DL.x265.8bit.SDR.DDP5.1【4K SDR 8.27 GB】
[Hao4K]托尼·克罗斯4K.Toni.Kroos.2019.GERMAN.ENSUBBED.2160p.AMZN.WEB-DL.x265.8bi.torrent (41.94 KB, 售价: 2 K币)
回复

使用道具 举报

全部回复27

lixincumt2008 发表于 2021-2-18 20:00:18 Hao4K手机版

lixincumt2008 沙发

2021-2-18 20:00:18

贴地斩
回复 支持 反对

使用道具 举报

chinaloony 发表于 2021-2-18 20:54:58

chinaloony 板凳

2021-2-18 20:54:58

辛苦了,谢谢
回复 支持 反对

使用道具 举报

Max5558 发表于 2021-2-18 21:35:42 Hao4K手机版

Max5558 地板

2021-2-18 21:35:42

宽宽我来啦
回复 支持 反对

使用道具 举报

yale 发表于 2021-2-18 22:24:32

yale 5#

2021-2-18 22:24:32

谢谢分享
回复 支持 反对

使用道具 举报

mx9001 发表于 2021-2-18 22:44:41

mx9001 6#

2021-2-18 22:44:41

感谢分享
回复 支持 反对

使用道具 举报

papa865788 发表于 2021-2-18 23:18:29

papa865788 7#

2021-2-18 23:18:29

感谢分享
回复 支持 反对

使用道具 举报

zengzzs 发表于 2021-2-18 23:22:21

zengzzs 8#

2021-2-18 23:22:21

这种纪录片太少了,支持了
回复 支持 1 反对 0

使用道具 举报

kenter888 发表于 2021-2-18 23:47:48

kenter888 9#

2021-2-18 23:47:48

J3455B
回复 支持 反对

使用道具 举报

cygnuszzz 发表于 2021-2-19 00:20:05

cygnuszzz 10#

2021-2-19 00:20:05

对TK印象最深还是世界杯的定位球绝杀,可惜没能带球队走得更远
回复 支持 反对

使用道具 举报

honda景老师 发表于 2021-2-19 00:22:34 Hao4K手机版

honda景老师 11#

2021-2-19 00:22:34

托尼 波多尔斯基 小猪 格策 托马斯穆勒 赫迪拉 诺伊尔…!!德国黄金一代巴西世界杯夺冠功臣
回复 支持 反对

使用道具 举报

bonna 发表于 2021-2-19 07:51:43

bonna 12#

2021-2-19 07:51:43

2014年世界杯德国夺冠。
回复 支持 反对

使用道具 举报

1273191449 发表于 2021-2-19 08:23:30

1273191449 13#

2021-2-19 08:23:30

感谢分享!
回复 支持 反对

使用道具 举报

dk30129 发表于 2021-2-19 09:27:24

dk30129 14#

2021-2-19 09:27:24

谢谢分享,新年好!
回复 支持 反对

使用道具 举报

panbell 发表于 2021-2-19 10:02:13

panbell 15#

2021-2-19 10:02:13

感谢楼主.!
回复 支持 反对

使用道具 举报

yangly 发表于 2021-2-19 11:01:01

yangly 16#

2021-2-19 11:01:01

感谢分享,辛苦了
回复 支持 反对

使用道具 举报

kennethlin168 发表于 2021-2-19 13:23:33

kennethlin168 17#

2021-2-19 13:23:33


谢谢分享
回复 支持 反对

使用道具 举报

笑傲江湖K 发表于 2021-2-20 09:06:32

笑傲江湖K 18#

2021-2-20 09:06:32



谢谢分享
回复 支持 反对

使用道具 举报

   发表回复

您需要登录后才可以回帖 登录 | 立即注册

返回列表 本版积分规则

  • 在线客服

  • 返回顶部