微博 微信

Hao4K影音

电影频道
电影封面:
片  名: 鲨海逃生 47 4k
电影分类: 冒险 惊悚 
国  家: 英国 
年  代: 2019年
分 辨 率: 4K(3840x2160)
电影格式: MKV|REMUX M2TS|BDMV 
画质标准: HDR HDR 10+ 
音质编码: Dolby Digital Plus Audio 
电影声道: 5.1声道 
帧数/FPS: 23.976 FPS
电影语言: 英文原版 
资源大小: 12.02 GB
导  演: 约翰内斯·罗伯茨
豆瓣评分: 5.1 分
中文字幕: -
剧情简介: 《鲨海逃生》讲述了四名少女索菲·内利斯(Sophie Nélisse),科琳·福克斯(Corinne Foxx),布莱恩·朱(Brianne Tju)和西斯廷·史泰龙(Sistine Stallone)的潜水冒险,她们探索了一个被淹没的玛雅城。
  当她们进入内部 发现下沉的废墟是致命大白鲨的猎场,心情由兴奋转为惊恐。 随着她们的供氧逐渐减少,必须在水下错综复杂且幽闭恐怖的洞穴和诡异的隧道中寻找逃离水牢的出路。
鲨海47米:狂鲨出笼(港) / 绝鲨47:猛鲨出笼(台) / 水下47米:破笼而出 / 鲨海47:猛鲨出笼 / 鲨海2 / 47 Meters Down: The Next Chapter / 48 Meters Down/鲨海逃生 47 4k 47.Meters.Down.Uncaged.2019.2160p.AMZN.WEB-DL.x265.10bit.HDR10plus.DTS-HD.MA.5.1.电影信息
  1. Video
  2. ID : 1
  3. Format : HEVC
  4. Format/Info : High Efficiency Video Coding
  5. Format profile : Main 10@L5@Main
  6. HDR format : SMPTE ST 2094 App 4, Version 1, HDR10+ Profile B compatible
  7. Codec ID : V_MPEGH/ISO/HEVC
  8. Duration : 1 h 30 min
  9. Bit rate : 14.5 Mb/s
  10. Width : 3 840 pixels
  11. Height : 1 600 pixels
  12. Display aspect ratio : 2.40:1
  13. Frame rate mode : Constant
  14. Frame rate : 23.976 (24000/1001) FPS
  15. Color space : YUV
  16. Chroma subsampling : 4:2:0
  17. Bit depth : 10 bits
  18. Bits/(Pixel*Frame) : 0.099
  19. Stream size : 9.15 GiB (76%)
  20. Default : Yes
  21. Forced : No
  22. Color range : Limited
  23. Color primaries : BT.2020
  24. Transfer characteristics : PQ
  25. Matrix coefficients : BT.2020 non-constant
  26. Mastering display color primaries : Display P3
  27. Mastering display luminance : min: 0.0001 cd/m2, max: 1000 cd/m2
  28. Maximum Content Light Level : 1321 cd/m2
  29. Maximum Frame-Average Light Level : 516 cd/m2

  30. Audio #1
  31. ID : 2
  32. Format : DTS XLL
  33. Format/Info : Digital Theater Systems
  34. Commercial name : DTS-HD Master Audio
  35. Codec ID : A_DTS
  36. Duration : 1 h 30 min
  37. Bit rate mode : Variable
  38. Bit rate : 3 896 kb/s
  39. Channel(s) : 6 channels
  40. Channel layout : C L R Ls Rs LFE
  41. Sampling rate : 48.0 kHz
  42. Frame rate : 93.750 FPS (512 SPF)
  43. Bit depth : 24 bits
  44. Compression mode : Lossless
  45. Stream size : 2.45 GiB (20%)
  46. Title : DTS-HD MA 5.1
  47. Language : English
  48. Default : Yes
  49. Forced : No

  50. Audio #2
  51. ID : 3
  52. Format : E-AC-3
  53. Format/Info : Enhanced AC-3
  54. Commercial name : Dolby Digital Plus
  55. Codec ID : A_EAC3
  56. Duration : 1 h 30 min
  57. Bit rate mode : Constant
  58. Bit rate : 640 kb/s
  59. Channel(s) : 6 channels
  60. Channel layout : L R C LFE Ls Rs
  61. Sampling rate : 48.0 kHz
  62. Frame rate : 31.250 FPS (1536 SPF)
  63. Compression mode : Lossy
  64. Stream size : 412 MiB (3%)
  65. Title : DDP 5.1
  66. Language : English
  67. Service kind : Complete Main
  68. Default : No
  69. Forced : No

  70. Text #1
  71. ID : 4
  72. Format : UTF-8
  73. Codec ID : S_TEXT/UTF8
  74. Codec ID/Info : UTF-8 Plain Text
  75. Duration : 1 h 20 min
  76. Bit rate : 53 b/s
  77. Count of elements : 1085
  78. Stream size : 31.6 KiB (0%)
  79. Title : SDH
  80. Language : English
  81. Default : Yes
  82. Forced : No

  83. Text #2
  84. ID : 5
  85. Format : PGS
  86. Muxing mode : zlib
  87. Codec ID : S_HDMV/PGS
  88. Codec ID/Info : Picture based subtitle format used on BDs/HD-DVDs
  89. Duration : 1 h 17 min
  90. Bit rate : 32.7 kb/s
  91. Count of elements : 1744
  92. Stream size : 18.0 MiB (0%)
  93. Title : English (SDH)
  94. Language : English
  95. Default : No
  96. Forced : No

  97. Text #3
  98. ID : 6
  99. Format : PGS
  100. Muxing mode : zlib
  101. Codec ID : S_HDMV/PGS
  102. Codec ID/Info : Picture based subtitle format used on BDs/HD-DVDs
  103. Duration : 1 h 17 min
  104. Bit rate : 23.9 kb/s
  105. Count of elements : 1506
  106. Stream size : 13.2 MiB (0%)
  107. Title : Spanish (Latin American)
  108. Language : Spanish
  109. Default : No
  110. Forced : No

  111. Menu
  112. 00:00:00.000 : en:Studio Logo
  113. 00:00:54.000 : en:Opening Credits
  114. 00:03:28.000 : en:Catherine bullies Mia
  115. 00:04:54.000 : en:Title Sequence
  116. 00:05:04.000 : en:Sasha and Mia get in a same car
  117. 00:05:43.000 : en:Yucatan, Mexico
  118. 00:07:08.000 : en:Jennifer worries Mia
  119. 00:08:07.000 : en:Grant shows a shark tooth
  120. 00:10:35.000 : en:Grant drops the girls off
  121. 00:12:40.000 : en:They arrive at a beautiful place
  122. 00:17:03.000 : en:Mia hesitates the idea
  123. 00:20:01.000 : en:The girls jump into the lake
  124. 00:26:55.000 : en:The girls explore in the cave
  125. 00:30:10.000 : en:The girls are trapped
  126. 00:33:37.000 : en:Sasha shows her leadership
  127. 00:37:21.000 : en:Sasha doesn't give up
  128. 00:41:32.000 : en:The girls try to escape from the sharks
  129. 00:44:45.000 : en:Mia looks for her Dad
  130. 00:50:26.000 : en:Mia is lost in the cave
  131. 00:52:21.000 : en:Mia follows Grant
  132. 00:54:37.000 : en:They get out of the cave
  133. 00:57:48.000 : en:Grant tells how to escape
  134. 01:01:04.000 : en:The girls go back into the cave
  135. 01:08:08.000 : en:Sasha apologizes to Mia
  136. 01:14:54.000 : en:The girls find a boat
  137. 01:17:00.000 : en:Mia never give up
  138. 01:21:42.000 : en:End Credits
复制代码

鲨海47米:狂鲨出笼(港) / 绝鲨47:猛鲨出笼(台) / 水下47米:破笼而出 / 鲨海47:猛鲨出笼 / 鲨海2 / 47 Meters Down: The Next Chapter / 48 Meters Down/鲨海逃生 47 4k 47.Meters.Down.Uncaged.2019.2160p.AMZN.WEB-DL.x265.10bit.HDR10plus.DTS-HD.MA.5.1.电影下载

鲨海逃生 47 4k 47.Meters.Down.Uncaged.2019.2160p.AMZN.WEB-DL.x265.10bit.HDR10plus.DTS-HD.MA.5.1【12.02 GB】
[Hao4k]鲨海逃生 47 4k 47.Meters.Down.Uncaged.2019.2160p.AMZN.WEB-DL.x265.10bit.H.torrent (60.71 KB)
回复

使用道具 举报

全部回复34

bbgrnnji 发表于 2021-2-19 12:42:18

bbgrnnji 沙发

2021-2-19 12:42:18

6分以下的坚决不下了, 要求不算高了。
回复 支持 1 反对 0

使用道具 举报

dyczw 发表于 2021-2-19 14:00:05

dyczw 板凳

2021-2-19 14:00:05

感谢分享,辛苦了
回复 支持 反对

使用道具 举报

clubgplus 发表于 2021-2-19 14:33:11

clubgplus 地板

2021-2-19 14:33:11

那里可以看,谢啦
回复 支持 反对

使用道具 举报

yangly 发表于 2021-2-19 15:18:58

yangly 5#

2021-2-19 15:18:58

感谢分享,辛苦了
回复 支持 反对

使用道具 举报

opkqq00 发表于 2021-2-19 16:45:03

opkqq00 6#

2021-2-19 16:45:03


感谢分享,辛苦了
回复 支持 反对

使用道具 举报

q294507046 发表于 2021-2-19 17:40:44

q294507046 7#

2021-2-19 17:40:44

感谢分享,辛苦了
回复 支持 反对

使用道具 举报

ksbdanlums 发表于 2021-2-19 20:24:44

ksbdanlums 8#

2021-2-19 20:24:44

下载看看咋样
回复 支持 反对

使用道具 举报

yale 发表于 2021-2-19 21:14:43

yale 9#

2021-2-19 21:14:43

谢谢分享
回复 支持 反对

使用道具 举报

peterliuwei 发表于 2021-2-19 21:56:29

peterliuwei 10#

2021-2-19 21:56:29

谢谢分享
回复 支持 反对

使用道具 举报

赶去厕所 发表于 2021-2-19 22:28:07 Hao4K手机版

赶去厕所 11#

2021-2-19 22:28:07

谢谢分享,辛苦老板了
回复 支持 反对

使用道具 举报

笑傲江湖K 发表于 2021-2-20 09:07:02

笑傲江湖K 12#

2021-2-20 09:07:02

感谢分享,辛苦了
回复 支持 反对

使用道具 举报

不下火线 发表于 2021-2-20 12:27:51

不下火线 13#

2021-2-20 12:27:51

多谢分享啦,是否看还要琢磨琢磨。哈哈
回复 支持 反对

使用道具 举报

hao59 发表于 2021-2-20 13:51:27

hao59 14#

2021-2-20 13:51:27

感谢分享,辛苦了
回复 支持 反对

使用道具 举报

andywjhh 发表于 2021-2-20 14:34:52

andywjhh 15#

2021-2-20 14:34:52

感谢分享,经典必须支持呀
回复 支持 反对

使用道具 举报

nhce8902 发表于 2021-2-20 15:35:38

nhce8902 16#

2021-2-20 15:35:38

感谢分享,经典必须支持呀
回复 支持 反对

使用道具 举报

dyt20 发表于 2021-2-20 15:49:55

dyt20 17#

2021-2-20 15:49:55

没分下载了
回复 支持 反对

使用道具 举报

flashleo 发表于 2021-2-20 16:49:59

flashleo 18#

2021-2-20 16:49:59

评分太低了吧
回复 支持 反对

使用道具 举报

   发表回复

您需要登录后才可以回帖 登录 | 立即注册

返回列表 本版积分规则

  • 在线客服

  • 返回顶部