微博 微信

Hao4K影音

电影频道
电影封面:
片  名: 幸福继续:乔纳斯兄弟巡演纪录片4k
电影分类: 其他 
国  家: 美国 
年  代: 2020年
分 辨 率: 4K(3840x2160)
电影格式: MKV|REMUX 
画质标准: HDR HDR10 
音质编码: Dolby Digital Plus Audio 
电影声道: 5.1声道 
帧数/FPS: 23.976 FPS
电影语言: 中文简体 中文繁体 英文原版 
资源大小: 11.08 GB
导  演: -
豆瓣评分: 7.4 分
中文字幕: -
剧情简介: A live concert experience and exclusive look into life on the road with the Jonas Brothers during their sold out \'Happiness Begins\' concert tour in 2019.
乔纳斯兄弟巡演纪录片 / Happiness Continues: A Jonas Brothers Concert Film/幸福继续:乔纳斯兄弟巡演纪录片4k Happiness.Continues.A.Jonas.Brothers.Concert.Film.2020.2160p.AMZN.WEB-DL.x265.10bit.HDR10plus.DDP5.1.音乐剧电影信息
  1. Video
  2. ID : 1
  3. Format : HEVC
  4. Format/Info : High Efficiency Video Coding
  5. Format profile : Main 10@L5@Main
  6. HDR format : SMPTE ST 2094 App 4, Version 1, HDR10+ Profile B compatible
  7. Codec ID : V_MPEGH/ISO/HEVC
  8. Duration : 1 h 44 min
  9. Bit rate : 14.5 Mb/s
  10. Width : 3 840 pixels
  11. Height : 2 160 pixels
  12. Display aspect ratio : 16:9
  13. Frame rate mode : Constant
  14. Frame rate : 23.976 (24000/1001) FPS
  15. Color space : YUV
  16. Chroma subsampling : 4:2:0
  17. Bit depth : 10 bits
  18. Bits/(Pixel*Frame) : 0.073
  19. Stream size : 10.6 GiB (96%)
  20. Default : Yes
  21. Forced : No
  22. Color range : Limited
  23. Color primaries : BT.2020
  24. Transfer characteristics : PQ
  25. Matrix coefficients : BT.2020 non-constant
  26. Mastering display color primaries : Display P3
  27. Mastering display luminance : min: 0.0001 cd/m2, max: 1000 cd/m2
  28. Maximum Content Light Level : 1908 cd/m2
  29. Maximum Frame-Average Light Level : 601 cd/m2

  30. Audio
  31. ID : 2
  32. Format : E-AC-3
  33. Format/Info : Enhanced AC-3
  34. Commercial name : Dolby Digital Plus
  35. Codec ID : A_EAC3
  36. Duration : 1 h 44 min
  37. Bit rate mode : Constant
  38. Bit rate : 640 kb/s
  39. Channel(s) : 6 channels
  40. Channel layout : L R C LFE Ls Rs
  41. Sampling rate : 48.0 kHz
  42. Frame rate : 31.250 FPS (1536 SPF)
  43. Compression mode : Lossy
  44. Stream size : 479 MiB (4%)
  45. Language : English
  46. Service kind : Complete Main
  47. Default : Yes
  48. Forced : No

  49. Text #1
  50. ID : 3
  51. Format : UTF-8
  52. Codec ID : S_TEXT/UTF8
  53. Codec ID/Info : UTF-8 Plain Text
  54. Duration : 1 h 43 min
  55. Bit rate : 89 b/s
  56. Count of elements : 1759
  57. Stream size : 67.7 KiB (0%)
  58. Title : SDH
  59. Language : English
  60. Default : No
  61. Forced : No

  62. Text #2
  63. ID : 4
  64. Format : UTF-8
  65. Codec ID : S_TEXT/UTF8
  66. Codec ID/Info : UTF-8 Plain Text
  67. Duration : 1 h 43 min
  68. Bit rate : 50 b/s
  69. Count of elements : 694
  70. Stream size : 38.4 KiB (0%)
  71. Language : Arabic
  72. Default : No
  73. Forced : No

  74. Text #3
  75. ID : 5
  76. Format : UTF-8
  77. Codec ID : S_TEXT/UTF8
  78. Codec ID/Info : UTF-8 Plain Text
  79. Duration : 1 h 43 min
  80. Bit rate : 31 b/s
  81. Count of elements : 635
  82. Stream size : 23.6 KiB (0%)
  83. Language : Danish
  84. Default : No
  85. Forced : No

  86. Text #4
  87. ID : 6
  88. Format : UTF-8
  89. Codec ID : S_TEXT/UTF8
  90. Codec ID/Info : UTF-8 Plain Text
  91. Duration : 1 h 43 min
  92. Bit rate : 28 b/s
  93. Count of elements : 639
  94. Stream size : 22.0 KiB (0%)
  95. Language : German
  96. Default : No
  97. Forced : No

  98. Text #5
  99. ID : 7
  100. Format : UTF-8
  101. Codec ID : S_TEXT/UTF8
  102. Codec ID/Info : UTF-8 Plain Text
  103. Duration : 1 h 43 min
  104. Bit rate : 31 b/s
  105. Count of elements : 653
  106. Stream size : 24.0 KiB (0%)
  107. Title : España
  108. Language : Spanish
  109. Default : No
  110. Forced : No

  111. Text #6
  112. ID : 8
  113. Format : UTF-8
  114. Codec ID : S_TEXT/UTF8
  115. Codec ID/Info : UTF-8 Plain Text
  116. Duration : 1 h 43 min
  117. Bit rate : 29 b/s
  118. Count of elements : 638
  119. Stream size : 22.5 KiB (0%)
  120. Language : Spanish
  121. Default : No
  122. Forced : No

  123. Text #7
  124. ID : 9
  125. Format : UTF-8
  126. Codec ID : S_TEXT/UTF8
  127. Codec ID/Info : UTF-8 Plain Text
  128. Duration : 1 h 43 min
  129. Bit rate : 30 b/s
  130. Count of elements : 647
  131. Stream size : 23.5 KiB (0%)
  132. Language : Finnish
  133. Default : No
  134. Forced : No

  135. Text #8
  136. ID : 10
  137. Format : UTF-8
  138. Codec ID : S_TEXT/UTF8
  139. Codec ID/Info : UTF-8 Plain Text
  140. Duration : 1 h 43 min
  141. Bit rate : 32 b/s
  142. Count of elements : 642
  143. Stream size : 24.7 KiB (0%)
  144. Language : fil
  145. Default : No
  146. Forced : No

  147. Text #9
  148. ID : 11
  149. Format : UTF-8
  150. Codec ID : S_TEXT/UTF8
  151. Codec ID/Info : UTF-8 Plain Text
  152. Duration : 1 h 43 min
  153. Bit rate : 31 b/s
  154. Count of elements : 648
  155. Stream size : 24.3 KiB (0%)
  156. Language : French
  157. Default : No
  158. Forced : No

  159. Text #10
  160. ID : 12
  161. Format : UTF-8
  162. Codec ID : S_TEXT/UTF8
  163. Codec ID/Info : UTF-8 Plain Text
  164. Duration : 1 h 43 min
  165. Bit rate : 49 b/s
  166. Count of elements : 694
  167. Stream size : 37.7 KiB (0%)
  168. Language : Hebrew
  169. Default : No
  170. Forced : No

  171. Text #11
  172. ID : 13
  173. Format : UTF-8
  174. Codec ID : S_TEXT/UTF8
  175. Codec ID/Info : UTF-8 Plain Text
  176. Duration : 1 h 43 min
  177. Bit rate : 81 b/s
  178. Count of elements : 692
  179. Stream size : 62.1 KiB (0%)
  180. Language : Hindi
  181. Default : No
  182. Forced : No

  183. Text #12
  184. ID : 14
  185. Format : UTF-8
  186. Codec ID : S_TEXT/UTF8
  187. Codec ID/Info : UTF-8 Plain Text
  188. Duration : 1 h 43 min
  189. Bit rate : 35 b/s
  190. Count of elements : 648
  191. Stream size : 26.8 KiB (0%)
  192. Language : Indonesian
  193. Default : No
  194. Forced : No

  195. Text #13
  196. ID : 15
  197. Format : UTF-8
  198. Codec ID : S_TEXT/UTF8
  199. Codec ID/Info : UTF-8 Plain Text
  200. Duration : 1 h 43 min
  201. Bit rate : 32 b/s
  202. Count of elements : 650
  203. Stream size : 24.5 KiB (0%)
  204. Language : Italian
  205. Default : No
  206. Forced : No

  207. Text #14
  208. ID : 16
  209. Format : UTF-8
  210. Codec ID : S_TEXT/UTF8
  211. Codec ID/Info : UTF-8 Plain Text
  212. Duration : 1 h 43 min
  213. Bit rate : 30 b/s
  214. Count of elements : 599
  215. Stream size : 22.9 KiB (0%)
  216. Language : Japanese
  217. Default : No
  218. Forced : No

  219. Text #15
  220. ID : 17
  221. Format : UTF-8
  222. Codec ID : S_TEXT/UTF8
  223. Codec ID/Info : UTF-8 Plain Text
  224. Duration : 1 h 43 min
  225. Bit rate : 34 b/s
  226. Count of elements : 693
  227. Stream size : 26.6 KiB (0%)
  228. Language : Korean
  229. Default : No
  230. Forced : No

  231. Text #16
  232. ID : 18
  233. Format : UTF-8
  234. Codec ID : S_TEXT/UTF8
  235. Codec ID/Info : UTF-8 Plain Text
  236. Duration : 1 h 43 min
  237. Bit rate : 31 b/s
  238. Count of elements : 636
  239. Stream size : 24.3 KiB (0%)
  240. Language : Norwegian Bokmal
  241. Default : No
  242. Forced : No

  243. Text #17
  244. ID : 19
  245. Format : UTF-8
  246. Codec ID : S_TEXT/UTF8
  247. Codec ID/Info : UTF-8 Plain Text
  248. Duration : 1 h 43 min
  249. Bit rate : 25 b/s
  250. Count of elements : 561
  251. Stream size : 19.2 KiB (0%)
  252. Language : Dutch
  253. Default : No
  254. Forced : No

  255. Text #18
  256. ID : 20
  257. Format : UTF-8
  258. Codec ID : S_TEXT/UTF8
  259. Codec ID/Info : UTF-8 Plain Text
  260. Duration : 1 h 43 min
  261. Bit rate : 30 b/s
  262. Count of elements : 658
  263. Stream size : 22.9 KiB (0%)
  264. Language : Polish
  265. Default : No
  266. Forced : No

  267. Text #19
  268. ID : 21
  269. Format : UTF-8
  270. Codec ID : S_TEXT/UTF8
  271. Codec ID/Info : UTF-8 Plain Text
  272. Duration : 1 h 43 min
  273. Bit rate : 28 b/s
  274. Count of elements : 662
  275. Stream size : 21.9 KiB (0%)
  276. Title : Brasil
  277. Language : Portuguese
  278. Default : No
  279. Forced : No

  280. Text #20
  281. ID : 22
  282. Format : UTF-8
  283. Codec ID : S_TEXT/UTF8
  284. Codec ID/Info : UTF-8 Plain Text
  285. Duration : 1 h 43 min
  286. Bit rate : 28 b/s
  287. Count of elements : 656
  288. Stream size : 21.7 KiB (0%)
  289. Language : Portuguese
  290. Default : No
  291. Forced : No

  292. Text #21
  293. ID : 23
  294. Format : UTF-8
  295. Codec ID : S_TEXT/UTF8
  296. Codec ID/Info : UTF-8 Plain Text
  297. Duration : 1 h 43 min
  298. Bit rate : 50 b/s
  299. Count of elements : 671
  300. Stream size : 38.6 KiB (0%)
  301. Language : Russian
  302. Default : No
  303. Forced : No

  304. Text #22
  305. ID : 24
  306. Format : UTF-8
  307. Codec ID : S_TEXT/UTF8
  308. Codec ID/Info : UTF-8 Plain Text
  309. Duration : 1 h 43 min
  310. Bit rate : 31 b/s
  311. Count of elements : 642
  312. Stream size : 23.9 KiB (0%)
  313. Language : Swedish
  314. Default : No
  315. Forced : No

  316. Text #23
  317. ID : 25
  318. Format : UTF-8
  319. Codec ID : S_TEXT/UTF8
  320. Codec ID/Info : UTF-8 Plain Text
  321. Duration : 1 h 43 min
  322. Bit rate : 91 b/s
  323. Count of elements : 694
  324. Stream size : 69.5 KiB (0%)
  325. Language : Tamil
  326. Default : No
  327. Forced : No

  328. Text #24
  329. ID : 26
  330. Format : UTF-8
  331. Codec ID : S_TEXT/UTF8
  332. Codec ID/Info : UTF-8 Plain Text
  333. Duration : 1 h 43 min
  334. Bit rate : 99 b/s
  335. Count of elements : 692
  336. Stream size : 75.3 KiB (0%)
  337. Language : Telugu
  338. Default : No
  339. Forced : No

  340. Text #25
  341. ID : 27
  342. Format : UTF-8
  343. Codec ID : S_TEXT/UTF8
  344. Codec ID/Info : UTF-8 Plain Text
  345. Duration : 1 h 43 min
  346. Bit rate : 80 b/s
  347. Count of elements : 694
  348. Stream size : 61.0 KiB (0%)
  349. Language : Thai
  350. Default : No
  351. Forced : No

  352. Text #26
  353. ID : 28
  354. Format : UTF-8
  355. Codec ID : S_TEXT/UTF8
  356. Codec ID/Info : UTF-8 Plain Text
  357. Duration : 1 h 43 min
  358. Bit rate : 31 b/s
  359. Count of elements : 647
  360. Stream size : 24.1 KiB (0%)
  361. Language : Turkish
  362. Default : No
  363. Forced : No

  364. Text #27
  365. ID : 29
  366. Format : UTF-8
  367. Codec ID : S_TEXT/UTF8
  368. Codec ID/Info : UTF-8 Plain Text
  369. Duration : 1 h 43 min
  370. Bit rate : 32 b/s
  371. Count of elements : 694
  372. Stream size : 24.9 KiB (0%)
  373. Title : Simplified
  374. Language : Chinese
  375. Default : No
  376. Forced : No

  377. Text #28
  378. ID : 30
  379. Format : UTF-8
  380. Codec ID : S_TEXT/UTF8
  381. Codec ID/Info : UTF-8 Plain Text
  382. Duration : 1 h 43 min
  383. Bit rate : 31 b/s
  384. Count of elements : 694
  385. Stream size : 23.7 KiB (0%)
  386. Title : Traditional
  387. Language : Chinese
  388. Default : No
  389. Forced : No

  390. Menu
  391. 00:00:00.000 : en:Amazon Original
  392. 00:00:08.000 : en:Studio Logo
  393. 00:00:42.000 : en:It's family
  394. 00:01:17.000 : en:Choosing happiness
  395. 00:02:03.000 : en:Happiness continues
  396. 00:04:19.000 : en:Rollercoaster
  397. 00:08:30.000 : en:Joe's apartment, NYC
  398. 00:08:56.000 : en:First time seeing the stage
  399. 00:10:32.000 : en:A meeting
  400. 00:11:15.000 : en:Cool
  401. 00:14:05.000 : en:Nick and Priyanka
  402. 00:15:02.000 : en:Kevin and Danielle
  403. 00:15:41.000 : en:Joe and Sophie
  404. 00:16:22.000 : en:This happiness begins right now
  405. 00:16:42.000 : en:SOS
  406. 00:19:12.000 : en:Miami
  407. 00:20:04.000 : en:Asking the fans for their favorite brother
  408. 00:21:56.000 : en:Only Human
  409. 00:25:26.000 : en:What didn't work?
  410. 00:27:25.000 : en:Fly With Me
  411. 00:29:27.000 : en:The story behind Lovebug
  412. 00:30:40.000 : en:Lovebug
  413. 00:33:39.000 : en:Vancouver
  414. 00:34:55.000 : en:Used to Be
  415. 00:39:41.000 : en:Hesitate
  416. 00:42:42.000 : en:Kevin and his family in New York
  417. 00:43:26.000 : en:Jungle City Studios, NYC
  418. 00:45:01.000 : en:Joe rides on a bike
  419. 00:45:45.000 : en:Runaway
  420. 00:46:32.000 : en:Hello Beautiful
  421. 00:48:01.000 : en:Can't Have You
  422. 00:48:28.000 : en:Gotta Find You
  423. 00:49:48.000 : en:Chicago
  424. 00:53:08.000 : en:BB Good
  425. 00:55:51.000 : en:Just Friends
  426. 01:00:01.000 : en:Fans wait outside the hotel
  427. 01:00:54.000 : en:Jealous
  428. 01:06:14.000 : en:Cake By The Ocean
  429. 01:10:04.000 : en:Kevin plays the guitar
  430. 01:11:22.000 : en:Comeback
  431. 01:15:58.000 : en:When You Look Me In The Eyes
  432. 01:18:27.000 : en:Video content shoot
  433. 01:19:07.000 : en:I Believe
  434. 01:21:02.000 : en:Mexico City
  435. 01:22:37.000 : en:Enjoying being a family
  436. 01:23:53.000 : en:Year 3000
  437. 01:27:38.000 : en:Burnin Up
  438. 01:30:52.000 : en:Sucker
  439. 01:34:47.000 : en:End of first show, Miami
  440. 01:38:47.000 : en:End Credits
复制代码

乔纳斯兄弟巡演纪录片 / Happiness Continues: A Jonas Brothers Concert Film/幸福继续:乔纳斯兄弟巡演纪录片4k Happiness.Continues.A.Jonas.Brothers.Concert.Film.2020.2160p.AMZN.WEB-DL.x265.10bit.HDR10plus.DDP5.1.音乐剧电影下载

幸福继续:乔纳斯兄弟巡演纪录片4k Happiness.Continues.A.Jonas.Brothers.Concert.Film.2020.2160p.AMZN.WEB-DL.x265.10bit.HDR10plus.DDP5.1【11.08 GB】
[Hao4k]幸福继续:乔纳斯兄弟巡演纪录片4k Happiness.Continues.A.Jonas.Brothers.Con.torrent (56.03 KB)
回复

使用道具 举报

全部回复16

ly000111 发表于 6 天前

ly000111 沙发

6 天前

新东西不知道好不好看,感谢分享
回复 支持 反对

使用道具 举报

highrpmclub 发表于 6 天前

highrpmclub 板凳

6 天前

欧美拍的人物类纪录片,不少评分都不低
回复 支持 反对

使用道具 举报

天牛 发表于 6 天前

天牛 地板

6 天前

谢谢分享
回复 支持 反对

使用道具 举报

天牛 发表于 6 天前

天牛 5#

6 天前

感谢分享
回复 支持 反对

使用道具 举报

yale 发表于 6 天前

yale 6#

6 天前

谢谢分享
回复 支持 反对

使用道具 举报

笑傲江湖K 发表于 5 天前

笑傲江湖K 7#

5 天前

感谢分享,辛苦了
回复 支持 反对

使用道具 举报

Makoto8023 发表于 5 天前

Makoto8023 8#

5 天前

谢谢分享
回复 支持 反对

使用道具 举报

zhangfeizi 发表于 5 天前 Hao4K手机版

zhangfeizi 9#

5 天前

谢谢谢谢
回复 支持 反对

使用道具 举报

andywjhh 发表于 5 天前

andywjhh 10#

5 天前

感谢分享,经典必须支持呀
回复 支持 反对

使用道具 举报

jasonzx 发表于 5 天前

jasonzx 11#

5 天前

谢谢分享
回复 支持 反对

使用道具 举报

panbell 发表于 5 天前

panbell 12#

5 天前

辛苦了  感谢分享啊
回复 支持 反对

使用道具 举报

wb1393198 发表于 4 天前

wb1393198 13#

4 天前

谢谢分享经典好片
回复 支持 反对

使用道具 举报

dibis 发表于 4 天前 Hao4K手机版

dibis 14#

4 天前

还上班那你慢慢
回复 支持 反对

使用道具 举报

andywjhh 发表于 4 天前

andywjhh 15#

4 天前

感谢楼主啊
回复 支持 反对

使用道具 举报

勇往直前168 发表于 3 天前

勇往直前168 16#

3 天前

谢谢分享
回复 支持 反对

使用道具 举报

xswen 发表于 3 天前

xswen 17#

3 天前

很喜欢的乐队,感谢分享
回复 支持 反对

使用道具 举报

   发表回复

您需要登录后才可以回帖 登录 | 立即注册

返回列表 本版积分规则

  • 在线客服

  • 返回顶部