微博 微信

Hao4K影音

[4k纪录视频] CCTV 2021年春节联欢晚会4K字幕版 UHD超高清4K频道节目资源!67.6GB

2021-2-21 09:58:50 39566 29 |只看大图 回帖奖励 |倒序浏览 |阅读模式

budong1682008 楼主

2021-2-19 15:26:52

430.jpg
微信截图_20210219151347.jpg

微信截图_20210219151309.jpg

微信截图_20210219152019.jpg

微信截图_20210219150715.jpg


General
ID                             : 1 (0x1)
Complete name                  : F:\BaiduNetdiskDownload\CCTV4K CW字幕版\20210212_CCTV4K_2021ZYGBDSZTCJLHWH(1).ts
Format                         : MPEG-TS
File size                      : 18.1 GiB
Duration                       : 1 h 19 min
Overall bit rate mode          : Variable
Overall bit rate               : 32.7 Mb/s

Video
ID                             : 256 (0x100)
Menu ID                        : 1 (0x1)
Format                         : HEVC
Format/Info                    : High Efficiency Video Coding
Format profile                 : Main@L5@High
Codec ID                       : 36
Duration                       : 1 h 19 min
Bit rate                       : 30.8 Mb/s
Width                          : 3 840 pixels
Height                         : 2 160 pixels
Display aspect ratio           : 16:9
Frame rate                     : 25.000 FPS
Standard                       : Component
Color space                    : YUV
Chroma subsampling             : 4:2:0 (Type 0)
Bit depth                      : 8 bits
Bits/(Pixel*Frame)             : 0.149
Stream size                    : 17.1 GiB (94%)
Color range                    : Limited
Color primaries                : BT.2020
Transfer characteristics       : HLG
Matrix coefficients            : BT.2020 non-constant

Audio
ID                             : 258 (0x102)
Menu ID                        : 1 (0x1)
Format                         : AC-3
Format/Info                    : Audio Coding 3
Commercial name                : Dolby Digital
Codec ID                       : 129
Duration                       : 1 h 19 min
Bit rate mode                  : Constant
Bit rate                       : 256 kb/s
Channel(s)                     : 6 channels
Channel layout                 : L R C LFE Ls Rs
Sampling rate                  : 48.0 kHz
Frame rate                     : 31.250 FPS (1536 SPF)
Compression mode               : Lossy
Delay relative to video        : -1 s 555 ms
Stream size                    : 145 MiB (1%)
Service kind                   : Complete Main

Menu
ID                             : 4096 (0x1000)
Menu ID                        : 1 (0x1)
Duration                       : 1 h 19 min
List                           : 256 (0x100) (HEVC) / 258 (0x102) (AC-3)
Service name                   : Service01
Service provider               : FFmpeg
Service type                   : digital television





2021年4K字幕版春节联欢晚会.txt

92 Bytes

回复

使用道具 举报

xgfp 发表于 2021-2-20 15:00:09

xgfp 推荐

2021-2-20 15:00:09

首先感谢楼主提供资源,已经通过百度网盘下载了,我发现视频分辨率号称4K,,但实际感受下来于1080p清晰度类似,甚至还不如,用PotPlayer播放色彩很奇怪,高亮部分完全爆掉,细节全无,用MPC-BE加madVR,色彩非常浓郁,电视模式要调成HLG才具有可看性,这与绝大多数HDR 4K存在很大差异,不知是不是该文件编码方式特殊?
回复 支持 反对

使用道具 举报

xgfp 发表于 2021-2-21 21:23:41

xgfp 推荐

2021-2-21 21:23:41

该视频清晰度真不敢恭维,人脸像经过PS过了,缺少细节和真实感,如果不用HDR模式,用PotPlayer播放,画面过曝,大面积白色,毫无观赏性,可以说都不如2013年春节联欢晚会35.5GB1080p也是 ts格式的视频质量,只有HDR模式改为HLG,电视图像模式改为照片(电视为索尼),色彩才算正常,
回复 支持 反对

使用道具 举报

djst808 发表于 2021-2-19 16:00:07

djst808 地板

2021-2-19 16:00:07

感谢分享,这个应该是重播版吧。楼主,有直播版的吗?
回复 支持 反对

使用道具 举报

budong1682008 发表于 2021-2-19 16:58:25

budong1682008 5#

2021-2-19 16:58:25

djst808 发表于 2021-2-19 16:00
感谢分享,这个应该是重播版吧。楼主,有直播版的吗?

这个版本右上角是没有直播和重播的字样哦
回复 支持 反对

使用道具 举报

budong1682008 发表于 2021-2-19 16:59:11

budong1682008 6#

2021-2-19 16:59:11

djst808 发表于 2021-2-19 16:00
感谢分享,这个应该是重播版吧。楼主,有直播版的吗?

我没有4K版本的直播版本
回复 支持 反对

使用道具 举报

leish 发表于 2021-2-19 18:03:32

leish 7#

2021-2-19 18:03:32

怎么有灰蒙蒙的感觉呢?
回复 支持 反对

使用道具 举报

leish 发表于 2021-2-19 20:39:22

leish 8#

2021-2-19 20:39:22

楼主!下载完后是四个文件,后缀名为bthome,怎么使用啊?
回复 支持 反对

使用道具 举报

prp6666 发表于 2021-2-19 23:17:11

prp6666 9#

2021-2-19 23:17:11

CCTV 202119 年
回复 支持 反对

使用道具 举报

budong1682008 发表于 2021-2-19 23:29:39 Hao4K手机版

budong1682008 10#

2021-2-19 23:29:39

leish 发表于 2021-2-19 20:39
楼主!下载完后是四个文件,后缀名为bthome,怎么使用啊?

把.bthome删除即可,是ts视频文件哦
回复 支持 反对

使用道具 举报

budong1682008 发表于 2021-2-19 23:33:31 Hao4K手机版

budong1682008 11#

2021-2-19 23:33:31

leish 发表于 2021-2-19 18:03
怎么有灰蒙蒙的感觉呢?

应该播放软件没设置好(比如没开启HDR),我在电脑和电视机上播放效果很好哦
回复 支持 反对

使用道具 举报

ly000111 发表于 2021-2-20 09:45:14

ly000111 12#

2021-2-20 09:45:14

怎么才一个多小时啊
回复 支持 反对

使用道具 举报

bg4uau 发表于 2021-2-20 10:08:31

bg4uau 13#

2021-2-20 10:08:31

高清资源,必须下载!
回复 支持 反对

使用道具 举报

budong1682008 发表于 2021-2-20 17:51:11

budong1682008 14#

2021-2-20 17:51:11

ly000111 发表于 2021-2-20 09:45
怎么才一个多小时啊

里面有4个文件哦
回复 支持 反对

使用道具 举报

budong1682008 发表于 2021-2-20 17:52:59

budong1682008 15#

2021-2-20 17:52:59

xgfp 发表于 2021-2-20 15:00
首先感谢楼主提供资源,已经通过百度网盘下载了,我发现视频分辨率号称4K,,但实际感受下来于1080p清晰度类 ...

播放时如果打开HDR模式颜色过于浓郁,我都是关闭HDR看的
回复 支持 反对

使用道具 举报

prp6666 发表于 2021-2-20 20:42:56

prp6666 16#

2021-2-20 20:42:56

此帖仅作者可见是啥意思
回复 支持 反对

使用道具 举报

budong1682008 发表于 2021-2-21 08:05:57 Hao4K手机版

budong1682008 17#

2021-2-21 08:05:57

prp6666 发表于 2021-2-20 20:42
此帖仅作者可见是啥意思

你再试下
回复 支持 反对

使用道具 举报

mubolin 发表于 2021-2-21 09:20:29

mubolin 18#

2021-2-21 09:20:29

回复 支持 反对

使用道具 举报

yexingderen424 发表于 2021-2-21 09:58:50

yexingderen424 19#

2021-2-21 09:58:50

感谢分享,
回复 支持 反对

使用道具 举报

   发表回复

您需要登录后才可以回帖 登录 | 立即注册

返回列表 本版积分规则

:
青铜玩家
:
未填写

主题

帖子

积分174

图文推荐

  • 99新3T硬盘带资源出售

    可烤满4K、1080P,豆瓣高分影片。 399元烤满

  • 【已售】出售115永久皇冠VIP

    115网盘: 超大空间、高速传输、200G大文

  • 出开博尔Q20PLUS+戴尔UP2718q hdr1000显示

    设备升级了,转让纯一手开博尔Q20PLUS 4K硬盘播放

  • 出99新的Xbox one X港服,只买了两个月寻有

    只买了两个月的Xbox one X港服,寻有缘人,拿回来

  • 杰士RP8000F落地音箱一对,全新拆箱,刚到

    杰士RP8000F(280F升级款)落地音箱一对,全新到

  • 在线客服

  • 返回顶部