微博 微信

Hao4K影音

[美剧] 伦敦黑帮 第一季4k Gangs.of.London.S01.HDR.2160p.美剧下载

3 天前 19874 5 |只看大图 回帖奖励 |倒序浏览 |阅读模式

大红色 楼主

2021-2-20 12:32:57

电视剧频道
电视剧封面:
电视剧名: 伦敦黑帮 第一季4k
年  代: 2020  
国  家: 美国
类  别: 剧情 
语  言: 英语
字  幕: 英文原版
上映日期: 2020-04-23
文件格式: mkv    
视频效果: 4K(3840x2160)    
资源大小: 51.74 GB
片  长: 45 分钟
导  演: 科林·哈迪 / 泽维尔·吉恩斯 / 加雷斯·埃文斯
剧情简介:  [突袭]系列导演加雷斯·埃文斯转战小荧屏,将执导新剧《伦敦黑帮》(Gangs of London,暂译),同时他也将担任该剧联合编剧。新剧由HBO旗下Cinemax频道、天空电视网联合出品。故事背景设置在现代伦敦,一个犯罪团伙头目之死引发出了伦敦不同国籍、不同派系之间的帮派斗争。该剧将于2019年播出。
伦敦黑帮 第一季4k Gangs.of.London.S01.HDR.2160p.WEB.h265.美剧信息
  1. Video
  2. ID : 1
  3. Format : HEVC
  4. Format/Info : High Efficiency Video Coding
  5. Format profile : Main 10@L5@High
  6. HDR format : SMPTE ST 2086, HDR10 compatible
  7. Codec ID : V_MPEGH/ISO/HEVC
  8. Duration : 58 min 41 s
  9. Bit rate : 13.3 Mb/s
  10. Width : 3 840 pixels
  11. Height : 2 160 pixels
  12. Display aspect ratio : 16:9
  13. Frame rate mode : Constant
  14. Frame rate : 25.000 FPS
  15. Color space : YUV
  16. Chroma subsampling : 4:2:0
  17. Bit depth : 10 bits
  18. Bits/(Pixel*Frame) : 0.064
  19. Stream size : 5.46 GiB (97%)
  20. Language : English
  21. Default : Yes
  22. Forced : No
  23. Color range : Limited
  24. Color primaries : BT.2020
  25. Transfer characteristics : PQ
  26. Matrix coefficients : BT.2020 non-constant
  27. Mastering display color primaries : R: x=0.150000 y=0.060000, G: x=0.680000 y=0.320000, B: x=0.320000 y=0.265000, White point: x=0.312680 y=0.329000
  28. Mastering display luminance : min: 0.0050 cd/m2, max: 1000 cd/m2
  29. Maximum Content Light Level : 999 cd/m2
  30. Maximum Frame-Average Light Level : 265 cd/m2

  31. Audio
  32. ID : 2
  33. Format : AAC LC
  34. Format/Info : Advanced Audio Codec Low Complexity
  35. Codec ID : A_AAC-2
  36. Duration : 58 min 41 s
  37. Bit rate : 445 kb/s
  38. Channel(s) : 6 channels
  39. Channel layout : C L R Ls Rs LFE
  40. Sampling rate : 48.0 kHz
  41. Frame rate : 46.875 FPS (1024 SPF)
  42. Compression mode : Lossy
  43. Stream size : 187 MiB (3%)
  44. Language : English
  45. Default : Yes
  46. Forced : No

  47. Text
  48. ID : 3
  49. Format : UTF-8
  50. Codec ID : S_TEXT/UTF8
  51. Codec ID/Info : UTF-8 Plain Text
  52. Duration : 58 min 11 s
  53. Bit rate : 58 b/s
  54. Count of elements : 825
  55. Stream size : 24.8 KiB (0%)
  56. Title : English [SDH]
  57. Language : English
  58. Default : No
  59. Forced : No
复制代码

伦敦黑帮 第一季4k Gangs.of.London.S01.HDR.2160p.WEB.h265.美剧下载

伦敦黑帮 第一季4k Gangs.of.London.S01.HDR.2160p.WEB.h265.【51.74 GB】
[Hao4k]伦敦黑帮 第一季4k Gangs.of.London.S01.HDR.2160p.WEB.h265-SCONES[rartv].torrent (130.64 KB)
回复

使用道具 举报

全部回复5

olddaddy 发表于 2021-2-20 16:43:04

olddaddy 沙发

2021-2-20 16:43:04

不知道和美剧差别有多少,尤其是伦敦腔的英语
回复 支持 反对

使用道具 举报

nirvana_jerry82 发表于 2021-2-20 18:35:17

nirvana_jerry82 板凳

2021-2-20 18:35:17

喜欢英剧,看看怎么样,多谢楼主
回复 支持 反对

使用道具 举报

daishuxuan 发表于 7 天前

daishuxuan 地板

7 天前

之前看过了,比较血腥。还是支持一下,感谢分享
回复 支持 反对

使用道具 举报

yaoduan2020 发表于 5 天前

yaoduan2020 5#

5 天前



感谢感谢,准备下载了
回复 支持 反对

使用道具 举报

nbnbtop 发表于 3 天前

nbnbtop 6#

3 天前

感谢感谢,慢慢下载
回复 支持 反对

使用道具 举报

   发表回复

您需要登录后才可以回帖 登录 | 立即注册

返回列表 本版积分规则

:
白银玩家
:
未填写

主题

帖子

积分995

图文推荐

  • Yuran DIY制定硬盘(UHD-BD)片源存储管理规

    有言在先:原创不易,深夜写成。也很忙,暂不回复

  • 将羊毛薅到一根不剩--百度网盘免会员高速下

    百度网盘是要购买会员的,30大洋/月的会员费对于

  • 亿格瑞4K播放机怎么使用transmission下载PT

    最近有不少喜欢下载4K电影的朋友都在问:“能不

  • 客厅回音壁能达到家庭影院效果吗?看完你就

    随着人们生活水平的逐渐提高,很多人都在卖房子装

  • 教你怎么PC电脑正确播放4K HDR电影【potpla

    如果观看4K HDR视频和电影的时候,使用不正确的方

  • 在线客服

  • 返回顶部