微博 微信

Hao4K影音

电影频道
电影封面:
片  名: 安迪·莫瑞:重启计划4K
电影分类: 剧情 
国  家: 美国 
年  代: 2019年
分 辨 率: 4K(3840x2160)
电影格式: MKV|REMUX 
画质标准: HDR10 
音质编码: Dolby Digital Plus Audio 
电影声道: 5.1声道 
帧数/FPS: 23.976 FPS
电影语言: 英文原版 
资源大小: 10.92 GB
导  演: Olivia Cappuccini
豆瓣评分: 8.0 分
中文字幕: -
剧情简介: A documentary film that tracks the tennis star\'s devastating injury journey between 2017-2019. From the front lines of surgical theatres, to the intimate corners of his home, we live alongside and witness Andy at his most vulnerable. Considered Britain\'s greatest sportsman ever, we see why Andy puts himself through the unimaginable to get back to the sport he loves.
安迪·莫瑞:重启计划4K.Andy.Murray.Resurfacing.2019.2160p.AMZN.WEB-DL.x265.10bit.HDR10plus.DDP5.1-4k电影信息
  1. Video
  2. ID : 1
  3. Format : HEVC
  4. Format/Info : High Efficiency Video Coding
  5. Format profile : Main 10@L5@Main
  6. HDR format : SMPTE ST 2094 App 4, Version 0, HDR10 compatible
  7. Codec ID : V_MPEGH/ISO/HEVC
  8. Duration : 1 h 48 min
  9. Bit rate : 13.8 Mb/s
  10. Width : 3 840 pixels
  11. Height : 1 920 pixels
  12. Display aspect ratio : 2.000
  13. Frame rate mode : Constant
  14. Frame rate : 25.000 FPS
  15. Standard : NTSC
  16. Color space : YUV
  17. Chroma subsampling : 4:2:0 (Type 2)
  18. Bit depth : 10 bits
  19. Bits/(Pixel*Frame) : 0.075
  20. Stream size : 10.4 GiB (96%)
  21. Default : Yes
  22. Forced : No
  23. Color range : Limited
  24. Color primaries : BT.2020
  25. Transfer characteristics : PQ
  26. Matrix coefficients : BT.2020 non-constant
  27. Mastering display color primaries : BT.2020
  28. Mastering display luminance : min: 0.1000 cd/m2, max: 1000 cd/m2
  29. Maximum Content Light Level : 1000 cd/m2
  30. Maximum Frame-Average Light Level : 339 cd/m2

  31. Audio
  32. ID : 2
  33. Format : E-AC-3
  34. Format/Info : Enhanced AC-3
  35. Commercial name : Dolby Digital Plus
  36. Codec ID : A_EAC3
  37. Duration : 1 h 48 min
  38. Bit rate mode : Constant
  39. Bit rate : 640 kb/s
  40. Channel(s) : 6 channels
  41. Channel layout : L R C LFE Ls Rs
  42. Sampling rate : 48.0 kHz
  43. Frame rate : 31.250 FPS (1536 SPF)
  44. Compression mode : Lossy
  45. Stream size : 497 MiB (4%)
  46. Title : DDP 5.1
  47. Language : English
  48. Service kind : Complete Main
  49. Default : Yes
  50. Forced : No

  51. Text #1
  52. ID : 3
  53. Format : UTF-8
  54. Codec ID : S_TEXT/UTF8
  55. Codec ID/Info : UTF-8 Plain Text
  56. Duration : 1 h 48 min
  57. Bit rate : 85 b/s
  58. Count of elements : 2068
  59. Stream size : 68.1 KiB (0%)
  60. Title : SDH
  61. Language : English
  62. Default : No
  63. Forced : No

  64. Text #2
  65. ID : 4
  66. Format : UTF-8
  67. Codec ID : S_TEXT/UTF8
  68. Codec ID/Info : UTF-8 Plain Text
  69. Duration : 1 h 45 min
  70. Bit rate : 78 b/s
  71. Count of elements : 1309
  72. Stream size : 60.7 KiB (0%)
  73. Language : English
  74. Default : No
  75. Forced : No

  76. Menu
  77. 00:00:00.000 : en:Amazon Original
  78. 00:00:05.000 : en:Studio Logo
  79. 00:00:33.000 : en:Andy Murray limps out of Wimbeldon
  80. 00:10:20.000 : en:Andy Murray attends the tennis rehab
  81. 00:19:42.000 : en:Andy Murray plays through pain
  82. 00:26:50.000 : en:Murray shares his best memories on the court
  83. 00:34:37.000 : en:Murray puts on his game face
  84. 00:45:39.000 : en:Bill Knowles assists Murray to overcome his pain
  85. 00:55:01.000 : en:Andy Murray gives it all
  86. 01:05:46.000 : en:Andy makes an announcement
  87. 01:17:33.000 : en:Andy puts on a good show
  88. 01:23:18.000 : en:Andy takes a call
  89. 01:33:42.000 : en:Andy makes a comeback
  90. 01:45:26.000 : en:Title Sequence
  91. 01:46:31.000 : en:End Credits
复制代码

安迪·莫瑞:重启计划4K.Andy.Murray.Resurfacing.2019.2160p.AMZN.WEB-DL.x265.10bit.HDR10plus.DDP5.1-4K电影下载

安迪·莫瑞:重启计划4K.Andy.Murray.Resurfacing.2019.2160p.AMZN.WEB-DL.x265.10bit.HDR10plus.DDP5.1【4K HDR 10.92 GB】
[Hao4K]安迪·莫瑞:重启计划4K.Andy.Murray.Resurfacing.2019.2160p.AMZN.WEB-DL.x26.torrent (55.21 KB, 售价: 2 K币)
回复

使用道具 举报

全部回复20

yale 发表于 2021-2-20 20:54:32

yale 沙发

2021-2-20 20:54:32

谢谢分享
回复 支持 反对

使用道具 举报

sharopova 发表于 2021-2-20 21:33:07

sharopova 板凳

2021-2-20 21:33:07

安迪·穆雷谢谢
回复 支持 反对

使用道具 举报

ljtzr7009 发表于 2021-2-20 21:40:04

ljtzr7009 地板

2021-2-20 21:40:04

Andy.Murray.Resurfacing谢谢
回复 支持 反对

使用道具 举报

周生 发表于 2021-2-20 22:57:54

周生 5#

2021-2-20 22:57:54

网坛巨星。谢谢分享。
回复 支持 反对

使用道具 举报

到处转转 发表于 2021-2-21 00:16:22

到处转转 6#

2021-2-21 00:16:22


H币的获得方式有:
1.每天回复帖子(5个),每次回复奖励1H币
2.每天发表主题(2个),每个主题奖励2H币
3.你的主题被版主设为精华帖,奖励50H币
4.你的回复和主题被版主或者其他坛友打赏
5.充值,咳,就是RMB换H币啦,1元=15H币
回复 支持 反对

使用道具 举报

ronini 发表于 2021-2-21 08:51:09

ronini 7#

2021-2-21 08:51:09

是纪录片???
回复 支持 反对

使用道具 举报

elvis119 发表于 2021-2-21 10:16:52

elvis119 8#

2021-2-21 10:16:52

当年唯一能撼动三大巨头的人   
回复 支持 反对

使用道具 举报

panbell 发表于 2021-2-21 10:54:28

panbell 9#

2021-2-21 10:54:28

谢谢分享
回复 支持 反对

使用道具 举报

Makoto8023 发表于 2021-2-21 11:07:12

Makoto8023 10#

2021-2-21 11:07:12

谢谢分享
回复 支持 反对

使用道具 举报

cfan4455 发表于 2021-2-21 12:02:32

cfan4455 11#

2021-2-21 12:02:32

作为一个网球迷,在这里看见穆雷还是很意外
回复 支持 反对

使用道具 举报

dibis 发表于 2021-2-21 12:40:57 Hao4K手机版

dibis 12#

2021-2-21 12:40:57

非常ok的计算机视觉
回复 支持 反对

使用道具 举报

andywjhh 发表于 2021-2-21 13:46:24

andywjhh 13#

2021-2-21 13:46:24

感谢楼主啊
回复 支持 反对

使用道具 举报

wangzh20081 发表于 2021-2-21 14:55:36

wangzh20081 14#

2021-2-21 14:55:36

感谢楼主谢谢分享
回复 支持 反对

使用道具 举报

xiongjiemv 发表于 2021-2-21 16:32:25

xiongjiemv 15#

2021-2-21 16:32:25

谢谢分享
回复 支持 反对

使用道具 举报

ljldean 发表于 2021-2-21 18:31:43

ljldean 16#

2021-2-21 18:31:43

一般都是翻译为穆雷吧
回复 支持 反对

使用道具 举报

honney6999 发表于 2021-2-21 22:36:38

honney6999 17#

2021-2-21 22:36:38

谢谢分享
回复 支持 反对

使用道具 举报

mzdbwyj 发表于 2021-2-22 06:57:51 Hao4K手机版

mzdbwyj 18#

2021-2-22 06:57:51

很好,喜欢穆雷!
回复 支持 反对

使用道具 举报

   发表回复

您需要登录后才可以回帖 登录 | 立即注册

返回列表 本版积分规则

  • 在线客服

  • 返回顶部