微博 微信

Hao4K影音

电影频道
电影封面:
片  名: 越界4K
电影分类: 剧情 纪录片 
国  家: 美国 
年  代: 2018年
分 辨 率: 4K(3840x2160)
电影格式: MKV|REMUX 
画质标准: HDR 
音质编码: Dolby Digital Plus Audio 
电影声道: 5.1声道 
帧数/FPS: 23.976 FPS
电影语言: 中文简体 中文繁体 英文原版 
资源大小: 7.96 GB
导  演: 斯派克·李 / Danya Taymor
豆瓣评分: 5.7 分
中文字幕: -
剧情简介: Two young men pass the time, dreaming of the promised land.
越界4K.Pass.Over.2018.2160p.AMZN.WEB-DL.x265.10bit.HDR10plus.DDP5.1-4k电影信息
  1. Video
  2. ID : 1
  3. Format : HEVC
  4. Format/Info : High Efficiency Video Coding
  5. Format profile : Main 10@L5@Main
  6. HDR format : SMPTE ST 2094 App 4, Version 1, HDR10+ Profile B compatible
  7. Codec ID : V_MPEGH/ISO/HEVC
  8. Duration : 1 h 15 min
  9. Bit rate : 14.5 Mb/s
  10. Width : 3 840 pixels
  11. Height : 2 160 pixels
  12. Display aspect ratio : 16:9
  13. Frame rate mode : Constant
  14. Frame rate : 23.976 (24000/1001) FPS
  15. Color space : YUV
  16. Chroma subsampling : 4:2:0
  17. Bit depth : 10 bits
  18. Bits/(Pixel*Frame) : 0.073
  19. Stream size : 7.62 GiB (96%)
  20. Default : Yes
  21. Forced : No
  22. Color range : Limited
  23. Color primaries : BT.2020
  24. Transfer characteristics : PQ
  25. Matrix coefficients : BT.2020 non-constant
  26. Mastering display color primaries : BT.2020
  27. Mastering display luminance : min: 0.0001 cd/m2, max: 1000 cd/m2
  28. Maximum Content Light Level : 9972 cd/m2
  29. Maximum Frame-Average Light Level : 604 cd/m2

  30. Audio
  31. ID : 2
  32. Format : E-AC-3
  33. Format/Info : Enhanced AC-3
  34. Commercial name : Dolby Digital Plus
  35. Codec ID : A_EAC3
  36. Duration : 1 h 15 min
  37. Bit rate mode : Constant
  38. Bit rate : 640 kb/s
  39. Channel(s) : 6 channels
  40. Channel layout : L R C LFE Ls Rs
  41. Sampling rate : 48.0 kHz
  42. Frame rate : 31.250 FPS (1536 SPF)
  43. Compression mode : Lossy
  44. Stream size : 344 MiB (4%)
  45. Language : English
  46. Service kind : Complete Main
  47. Default : Yes
  48. Forced : No

  49. Text #1
  50. ID : 3
  51. Format : UTF-8
  52. Codec ID : S_TEXT/UTF8
  53. Codec ID/Info : UTF-8 Plain Text
  54. Duration : 1 h 11 min
  55. Bit rate : 72 b/s
  56. Count of elements : 1510
  57. Stream size : 37.9 KiB (0%)
  58. Title : SDH
  59. Language : English
  60. Default : No
  61. Forced : No

  62. Text #2
  63. ID : 4
  64. Format : UTF-8
  65. Codec ID : S_TEXT/UTF8
  66. Codec ID/Info : UTF-8 Plain Text
  67. Duration : 1 h 11 min
  68. Bit rate : 99 b/s
  69. Count of elements : 1075
  70. Stream size : 52.3 KiB (0%)
  71. Language : Arabic
  72. Default : No
  73. Forced : No

  74. Text #3
  75. ID : 5
  76. Format : UTF-8
  77. Codec ID : S_TEXT/UTF8
  78. Codec ID/Info : UTF-8 Plain Text
  79. Duration : 1 h 11 min
  80. Bit rate : 50 b/s
  81. Count of elements : 1067
  82. Stream size : 26.7 KiB (0%)
  83. Language : Danish
  84. Default : No
  85. Forced : No

  86. Text #4
  87. ID : 6
  88. Format : UTF-8
  89. Codec ID : S_TEXT/UTF8
  90. Codec ID/Info : UTF-8 Plain Text
  91. Duration : 1 h 11 min
  92. Bit rate : 62 b/s
  93. Count of elements : 1069
  94. Stream size : 32.5 KiB (0%)
  95. Language : German
  96. Default : No
  97. Forced : No

  98. Text #5
  99. ID : 7
  100. Format : UTF-8
  101. Codec ID : S_TEXT/UTF8
  102. Codec ID/Info : UTF-8 Plain Text
  103. Duration : 1 h 11 min
  104. Bit rate : 68 b/s
  105. Count of elements : 1069
  106. Stream size : 35.9 KiB (0%)
  107. Title : España
  108. Language : Spanish
  109. Default : No
  110. Forced : No

  111. Text #6
  112. ID : 8
  113. Format : UTF-8
  114. Codec ID : S_TEXT/UTF8
  115. Codec ID/Info : UTF-8 Plain Text
  116. Duration : 1 h 11 min
  117. Bit rate : 62 b/s
  118. Count of elements : 1072
  119. Stream size : 33.0 KiB (0%)
  120. Language : Spanish
  121. Default : No
  122. Forced : No

  123. Text #7
  124. ID : 9
  125. Format : UTF-8
  126. Codec ID : S_TEXT/UTF8
  127. Codec ID/Info : UTF-8 Plain Text
  128. Duration : 1 h 11 min
  129. Bit rate : 56 b/s
  130. Count of elements : 943
  131. Stream size : 29.8 KiB (0%)
  132. Language : Finnish
  133. Default : No
  134. Forced : No

  135. Text #8
  136. ID : 10
  137. Format : UTF-8
  138. Codec ID : S_TEXT/UTF8
  139. Codec ID/Info : UTF-8 Plain Text
  140. Duration : 1 h 11 min
  141. Bit rate : 62 b/s
  142. Count of elements : 1040
  143. Stream size : 33.0 KiB (0%)
  144. Language : French
  145. Default : No
  146. Forced : No

  147. Text #9
  148. ID : 11
  149. Format : UTF-8
  150. Codec ID : S_TEXT/UTF8
  151. Codec ID/Info : UTF-8 Plain Text
  152. Duration : 1 h 11 min
  153. Bit rate : 100 b/s
  154. Count of elements : 1074
  155. Stream size : 52.9 KiB (0%)
  156. Language : Hebrew
  157. Default : No
  158. Forced : No

  159. Text #10
  160. ID : 12
  161. Format : UTF-8
  162. Codec ID : S_TEXT/UTF8
  163. Codec ID/Info : UTF-8 Plain Text
  164. Duration : 1 h 11 min
  165. Bit rate : 63 b/s
  166. Count of elements : 1069
  167. Stream size : 33.2 KiB (0%)
  168. Language : Indonesian
  169. Default : No
  170. Forced : No

  171. Text #11
  172. ID : 13
  173. Format : UTF-8
  174. Codec ID : S_TEXT/UTF8
  175. Codec ID/Info : UTF-8 Plain Text
  176. Duration : 1 h 11 min
  177. Bit rate : 69 b/s
  178. Count of elements : 1074
  179. Stream size : 36.2 KiB (0%)
  180. Language : Italian
  181. Default : No
  182. Forced : No

  183. Text #12
  184. ID : 14
  185. Format : UTF-8
  186. Codec ID : S_TEXT/UTF8
  187. Codec ID/Info : UTF-8 Plain Text
  188. Duration : 1 h 10 min
  189. Bit rate : 55 b/s
  190. Count of elements : 1390
  191. Stream size : 28.7 KiB (0%)
  192. Language : Japanese
  193. Default : No
  194. Forced : No

  195. Text #13
  196. ID : 15
  197. Format : UTF-8
  198. Codec ID : S_TEXT/UTF8
  199. Codec ID/Info : UTF-8 Plain Text
  200. Duration : 1 h 11 min
  201. Bit rate : 75 b/s
  202. Count of elements : 1074
  203. Stream size : 39.8 KiB (0%)
  204. Language : Korean
  205. Default : No
  206. Forced : No

  207. Text #14
  208. ID : 16
  209. Format : UTF-8
  210. Codec ID : S_TEXT/UTF8
  211. Codec ID/Info : UTF-8 Plain Text
  212. Duration : 1 h 11 min
  213. Bit rate : 59 b/s
  214. Count of elements : 1080
  215. Stream size : 31.1 KiB (0%)
  216. Language : Malay
  217. Default : No
  218. Forced : No

  219. Text #15
  220. ID : 17
  221. Format : UTF-8
  222. Codec ID : S_TEXT/UTF8
  223. Codec ID/Info : UTF-8 Plain Text
  224. Duration : 1 h 11 min
  225. Bit rate : 58 b/s
  226. Count of elements : 1053
  227. Stream size : 30.7 KiB (0%)
  228. Language : Norwegian Bokmal
  229. Default : No
  230. Forced : No

  231. Text #16
  232. ID : 18
  233. Format : UTF-8
  234. Codec ID : S_TEXT/UTF8
  235. Codec ID/Info : UTF-8 Plain Text
  236. Duration : 1 h 11 min
  237. Bit rate : 52 b/s
  238. Count of elements : 1054
  239. Stream size : 27.8 KiB (0%)
  240. Language : Dutch
  241. Default : No
  242. Forced : No

  243. Text #17
  244. ID : 19
  245. Format : UTF-8
  246. Codec ID : S_TEXT/UTF8
  247. Codec ID/Info : UTF-8 Plain Text
  248. Duration : 1 h 11 min
  249. Bit rate : 58 b/s
  250. Count of elements : 1074
  251. Stream size : 30.7 KiB (0%)
  252. Language : Polish
  253. Default : No
  254. Forced : No

  255. Text #18
  256. ID : 20
  257. Format : UTF-8
  258. Codec ID : S_TEXT/UTF8
  259. Codec ID/Info : UTF-8 Plain Text
  260. Duration : 1 h 11 min
  261. Bit rate : 68 b/s
  262. Count of elements : 1071
  263. Stream size : 35.7 KiB (0%)
  264. Title : Brasil
  265. Language : Portuguese
  266. Default : No
  267. Forced : No

  268. Text #19
  269. ID : 21
  270. Format : UTF-8
  271. Codec ID : S_TEXT/UTF8
  272. Codec ID/Info : UTF-8 Plain Text
  273. Duration : 1 h 11 min
  274. Bit rate : 63 b/s
  275. Count of elements : 1068
  276. Stream size : 33.3 KiB (0%)
  277. Language : Portuguese
  278. Default : No
  279. Forced : No

  280. Text #20
  281. ID : 22
  282. Format : UTF-8
  283. Codec ID : S_TEXT/UTF8
  284. Codec ID/Info : UTF-8 Plain Text
  285. Duration : 1 h 11 min
  286. Bit rate : 115 b/s
  287. Count of elements : 1080
  288. Stream size : 60.6 KiB (0%)
  289. Language : Russian
  290. Default : No
  291. Forced : No

  292. Text #21
  293. ID : 23
  294. Format : UTF-8
  295. Codec ID : S_TEXT/UTF8
  296. Codec ID/Info : UTF-8 Plain Text
  297. Duration : 1 h 11 min
  298. Bit rate : 60 b/s
  299. Count of elements : 1069
  300. Stream size : 31.6 KiB (0%)
  301. Language : Swedish
  302. Default : No
  303. Forced : No

  304. Text #22
  305. ID : 24
  306. Format : UTF-8
  307. Codec ID : S_TEXT/UTF8
  308. Codec ID/Info : UTF-8 Plain Text
  309. Duration : 1 h 11 min
  310. Bit rate : 150 b/s
  311. Count of elements : 1094
  312. Stream size : 79.0 KiB (0%)
  313. Language : Thai
  314. Default : No
  315. Forced : No

  316. Text #23
  317. ID : 25
  318. Format : UTF-8
  319. Codec ID : S_TEXT/UTF8
  320. Codec ID/Info : UTF-8 Plain Text
  321. Duration : 1 h 11 min
  322. Bit rate : 67 b/s
  323. Count of elements : 1068
  324. Stream size : 35.2 KiB (0%)
  325. Language : Tagalog
  326. Default : No
  327. Forced : No

  328. Text #24
  329. ID : 26
  330. Format : UTF-8
  331. Codec ID : S_TEXT/UTF8
  332. Codec ID/Info : UTF-8 Plain Text
  333. Duration : 1 h 11 min
  334. Bit rate : 63 b/s
  335. Count of elements : 1072
  336. Stream size : 33.1 KiB (0%)
  337. Language : Turkish
  338. Default : No
  339. Forced : No

  340. Text #25
  341. ID : 27
  342. Format : UTF-8
  343. Codec ID : S_TEXT/UTF8
  344. Codec ID/Info : UTF-8 Plain Text
  345. Duration : 1 h 11 min
  346. Bit rate : 63 b/s
  347. Count of elements : 1074
  348. Stream size : 33.1 KiB (0%)
  349. Title : Simplified
  350. Language : Chinese
  351. Default : No
  352. Forced : No

  353. Text #26
  354. ID : 28
  355. Format : UTF-8
  356. Codec ID : S_TEXT/UTF8
  357. Codec ID/Info : UTF-8 Plain Text
  358. Duration : 1 h 11 min
  359. Bit rate : 61 b/s
  360. Count of elements : 1074
  361. Stream size : 32.1 KiB (0%)
  362. Title : Traditional
  363. Language : Chinese
  364. Default : No
  365. Forced : No

  366. Menu
  367. 00:00:00.000 : en:Amazon Original
  368. 00:00:22.000 : en:On the corner of 64th and Martin Luther King
  369. 00:09:28.000 : en:Gunshots cut a celebration short
  370. 00:13:02.000 : en:Mister stumbles upon Moses and Kitch
  371. 00:20:04.000 : en:Mister unpacks his picnic
  372. 00:25:11.000 : en:The N word
  373. 00:29:56.000 : en:Salutations
  374. 00:32:33.000 : en:A visit from Ossifer
  375. 00:35:01.000 : en:A new day
  376. 00:39:14.000 : en:What ever happened to
  377. 00:45:30.000 : en:The meaning behind a name
  378. 00:51:04.000 : en:Pass over
  379. 00:54:57.000 : en:Kitch and Moses utilize a rock
  380. 00:58:53.000 : en:Moses tests Ossifer\'s patience
  381. 01:01:31.000 : en:Freedom
  382. 01:05:56.000 : en:Taking back what\'s ours
  383. 01:08:49.000 : en:(No One Knows Me) Like the Piano
  384. 01:12:20.000 : en:End Credits
复制代码

越界4K.Pass.Over.2018.2160p.AMZN.WEB-DL.x265.10bit.HDR10plus.DDP5.1-4K电影下载
越界4K.Pass.Over.2018.2160p.AMZN.WEB-DL.x265.10bit.HDR10plus.DDP5.1-简繁中字【4K HDR 7.96 GB】
越界4K.Pass.Over.2018.2160p.AMZN.WEB-DL.x265.10bit.HDR10plus.DDP5.1-SWTYBLZ.torrent (40.36 KB)
回复

使用道具 举报

全部回复20

yale 发表于 7 天前

yale 沙发

7 天前

谢谢分享
回复 支持 反对

使用道具 举报

bonna 发表于 7 天前

bonna 板凳

7 天前

导演: 斯派克·李。5.7分。
回复 支持 反对

使用道具 举报

dk30129 发表于 6 天前

dk30129 地板

6 天前

谢谢分享,顶你!!!
回复 支持 反对

使用道具 举报

bbgrnnji 发表于 6 天前

bbgrnnji 5#

6 天前

斯派克·李,5.7分的纪录片,哈哈
回复 支持 反对

使用道具 举报

wb1393198 发表于 6 天前

wb1393198 6#

6 天前

谢谢分享经典好片
回复 支持 反对

使用道具 举报

panbell 发表于 6 天前

panbell 7#

6 天前

谢谢分享
回复 支持 反对

使用道具 举报

dibis 发表于 6 天前 Hao4K手机版

dibis 8#

6 天前

非常完美呀
回复 支持 反对

使用道具 举报

andywjhh 发表于 6 天前

andywjhh 9#

6 天前

感谢楼主啊,辛苦你了 哦
回复 支持 反对

使用道具 举报

yale 发表于 6 天前

yale 10#

6 天前

谢谢分享
回复 支持 反对

使用道具 举报

猫猫虫 发表于 5 天前

猫猫虫 11#

5 天前


谢谢分享
回复 支持 反对

使用道具 举报

笑傲江湖K 发表于 5 天前

笑傲江湖K 12#

5 天前

谢谢分享,顶顶顶
回复 支持 反对

使用道具 举报

老虎兄弟 发表于 5 天前

老虎兄弟 13#

5 天前

才5.7啊~这样的片子似乎就没必要下载4K了,一般低于6分的影片我都不会看。
回复 支持 反对

使用道具 举报

w600825 发表于 5 天前

w600825 14#

5 天前

不知道怎么样,支持了
回复 支持 反对

使用道具 举报

凭顺意 发表于 5 天前

凭顺意 15#

5 天前

谢谢分享,感恩中
回复 支持 反对

使用道具 举报

kennethlin168 发表于 5 天前

kennethlin168 16#

5 天前


谢谢分享
回复 支持 反对

使用道具 举报

236285308455 发表于 5 天前 Hao4K手机版

236285308455 17#

5 天前

支持………………
回复 支持 反对

使用道具 举报

ahs371 发表于 4 天前

ahs371 18#

4 天前

非常感谢!
回复 支持 反对

使用道具 举报

   发表回复

您需要登录后才可以回帖 登录 | 立即注册

返回列表 本版积分规则

  • 在线客服

  • 返回顶部